العودة   :: EgyStars :: > المنتدي الفني > أفلام هندي > قسم الاسطورة اميتاب بتشان

إضافة رد
 
أدوات الموضوع انواع عرض الموضوع
رقم المشاركة : ( 1 )
الصورة الرمزية nemr23
 
nemr23
Super Moderator

nemr23 غير متواجد حالياً

       
رقم العضوية : 23269
تاريخ التسجيل : Sep 2012
مكان الإقامة :
عدد المشاركات : 638
عدد النقاط : 1
قوة التقييم : nemr23 is an unknown quantity at this point
جهات الاتصال : إرسال رسالة عبر Yahoo إلى nemr23
movies_action Kaalia 1981 مترجم DVDRip اكشن أميتاب وأمجد خان تحميل ومشاهدة

كُتب : [ 07-02-2018 ]









فيلم الأكشن والجريمة الرائع

Kaalia 1981


بطولة
الأسطورة أميتاب
أمجد خان
بارفين بابى
بران


ألف شكر للمترجم الكبير

سعد فوزى

تعديل التوقيت وترجمة حصرية للأغانى

أمير سامى

نسخة مترجمة DVDRip x264 بمساحة 1.93 جيجا
غير مضغوطة


قصة الفيلم
كالو (اميتاب) شاب بسيط ساذج يعتمد على اخيه (قدر خان) ولا يتحمل اى مسؤلية
يصاب اخيه بسبب تعطل مكينة المصنع الذى يملكه ساهاني (امجد خان) ويستخدمه غطاء
لتهريب الذهب يطلب كالو 500 روبية لعلاج اخيه من ساهى لكنه يرفض ويطرده مما يجبره على سرقته
ويبلغ ساهى الشرطة عن السرقة ويتم حبس كالو ويتحول فى السجن الى كاليا الذى يسعى لتحطيم
ساهى بأى وسيلة بعد خروجه حتى لو غير شريفة ويستولى على صفقات الذهب فهل ينجح؟


[CENTER]



General
Complete name : arab2bKaalia 1981 - DVDRip x264,by.nemr23.mkv
Format : Matroska
Format version : Version 4 / Version 2
File size : 1.93 GiB
Duration : 2h 45mn
Overall bit rate : 1 671 Kbps
Writing application : Lavf56.30.100
Writing library : Lavf56.30.100

Video
ID : 1
Format : AVC
Format/Info : Advanced Video Codec
Format profile : Baseline@L3.0
Format settings, CABAC : No
Format settings, ReFrames : 1 frame
Codec ID : V_MPEG4/ISO/AVC
Duration : 2h 45mn
Bit rate : 1 318 Kbps
Width : 640 pixels
Height : 480 pixels
Display aspect ratio : 4:3
Frame rate mode : Constant
Frame rate : 29.970 fps
Color space : YUV
Chroma subsampling : 40
Bit depth : 8 bits
Scan type : Progressive
Bits/(Pixel*Frame) : 0.143
Stream size : 1.53 GiB (79%)
Writing library : x264 core 146
Encoding settings : cabac=0 / ref=1 / deblock=1:0:0 / analyse=0x1:0x1 / me=dia / subme=1 / psy=1 / psy_rd=1.00:0.00 / mixed_ref=0 / me_range=16 / chroma_me=1 / trellis=0 / 8x8dct=0 / cqm=0 / deadzone=21,11 / fast_pskip=1 / chroma_qp_offset=0 / threads=3 / lookahead_threads=1 / sliced_threads=0 / nr=0 / decimate=1 / interlaced=0 / bluray_compat=0 / constrained_intra=0 / bframes=0 / weightp=0 / keyint=250 / keyint_min=25 / scenecut=40 / intra_refresh=0 / rc=crf / mbtree=0 / crf=23.0 / qcomp=0.60 / qpmin=0 / qpmax=69 / qpstep=4 / ip_ratio=1.40 / aq=1:1.00
Language : English
Default : No
Forced : No

Audio
ID : 2
Format : MPEG Audio
Format version : Version 1
Format profile : Layer 3
Mode : Joint stereo
Mode extension : MS Stereo
Codec ID : A_MPEG/L3
Codec ID/Hint : MP3
Duration : 2h 45mn
Bit rate mode : Constant
Bit rate : 320 Kbps
Channel(s) : 2 channels
Sampling rate : 44.1 KHz
Compression mode : Lossy
Delay relative to video : -25ms
Stream size : 379 MiB (19%)
Writing library : Lavc56.34.100 libmp3lame
Default : Yes
Forced : No

General
Complete name : arab2bKaalia 1981 - DVDRip x264,by.nemr23.mkv
Format : Matroska
Format version : Version 4 / Version 2
File size : 1.93 GiB
Duration : 2h 45mn
Overall bit rate : 1 671 Kbps
Writing application : Lavf56.30.100
Writing library : Lavf56.30.100

Video
ID : 1
Format : AVC
Format/Info : Advanced Video Codec
Format profile : Baseline@L3.0
Format settings, CABAC : No
Format settings, ReFrames : 1 frame
Codec ID : V_MPEG4/ISO/AVC
Duration : 2h 45mn
Bit rate : 1 318 Kbps
Width : 640 pixels
Height : 480 pixels
Display aspect ratio : 4:3
Frame rate mode : Constant
Frame rate : 29.970 fps
Color space : YUV
Chroma subsampling : 40
Bit depth : 8 bits
Scan type : Progressive
Bits/(Pixel*Frame) : 0.143
Stream size : 1.53 GiB (79%)
Writing library : x264 core 146
Encoding settings : cabac=0 / ref=1 / deblock=1:0:0 / analyse=0x1:0x1 / me=dia / subme=1 / psy=1 / psy_rd=1.00:0.00 / mixed_ref=0 / me_range=16 / chroma_me=1 / trellis=0 / 8x8dct=0 / cqm=0 / deadzone=21,11 / fast_pskip=1 / chroma_qp_offset=0 / threads=3 / lookahead_threads=1 / sliced_threads=0 / nr=0 / decimate=1 / interlaced=0 / bluray_compat=0 / constrained_intra=0 / bframes=0 / weightp=0 / keyint=250 / keyint_min=25 / scenecut=40 / intra_refresh=0 / rc=crf / mbtree=0 / crf=23.0 / qcomp=0.60 / qpmin=0 / qpmax=69 / qpstep=4 / ip_ratio=1.40 / aq=1:1.00
Language : English
Default : No
Forced : No

Audio
ID : 2
Format : MPEG Audio
Format version : Version 1
Format profile : Layer 3
Mode : Joint stereo
Mode extension : MS Stereo
Codec ID : A_MPEG/L3
Codec ID/Hint : MP3
Duration : 2h 45mn
Bit rate mode : Constant
Bit rate : 320 Kbps
Channel(s) : 2 channels
Sampling rate : 44.1 KHz
Compression mode : Lossy
Delay relative to video : -25ms
Stream size : 379 MiB (19%)
Writing library : Lavc56.34.100 libmp3lame
Default : Yes
Forced : No








نسخة أصغر بمساحة 750 ميجا
او



رابط المشاهدة


توقيع : nemr23

بعتذر للجميع على حذف الروابط وعن عدم تجديدها لظروفى الصحية
جارى اعادة الرفع




للتواصل على الفيسبوك

‏رابطة محبى الأسطورة أميتاب بتشان‏
https://www.facebook.com/Amitabhamitab/


التعديل الأخير تم بواسطة nemr23 ; 08-02-2018 الساعة 06:32 AM
رد مع اقتباس
 
 رقم المشاركة : ( 2 )
juleyano
Moderator
الصورة الرمزية juleyano
رقم العضوية : 32054
تاريخ التسجيل : Nov 2014
مكان الإقامة :
عدد المشاركات : 7,547
عدد النقاط : 1
قوة التقييم : juleyano is an unknown quantity at this point
جهات الاتصال :

juleyano غير متواجد حالياً

   

افتراضي

كُتب : [ 04-04-2018 ]


very nic thankkkkkkkkkkks


توقيع : juleyano

الى الاخوة الاعزاء من عنده افلام محملة من عندي اتمنى تحميلها لافادة الاخيرين وخاصة افلام التي روابطها منتهية يرجى المتابعة والسبب الهارد الديسك تعطل بسعة ٢ تيرا والف شكر
ساضع الافلام بشكل يومي لانني ساحمل كافة الافلام وارى اي فلم منتهي روابطه

رد مع اقتباس
 
 رقم المشاركة : ( 3 )
m_m99999
عضو نشيط
رقم العضوية : 36086
تاريخ التسجيل : Mar 2018
مكان الإقامة :
عدد المشاركات : 100
عدد النقاط : 1
قوة التقييم : m_m99999 is an unknown quantity at this point
جهات الاتصال :

m_m99999 غير متواجد حالياً

   

افتراضي اريد تحميل الفيلم

كُتب : [ 05-04-2018 ]


اريد تحميل الفيلم


رد مع اقتباس
 
 رقم المشاركة : ( 4 )
wael riad
عضو جديد
رقم العضوية : 23066
تاريخ التسجيل : Sep 2012
مكان الإقامة :
عدد المشاركات : 28
عدد النقاط : 1
قوة التقييم : wael riad is an unknown quantity at this point
جهات الاتصال :

wael riad غير متواجد حالياً

   

افتراضي

كُتب : [ 01-08-2018 ]


thanksssssssssssssssssssssssssssssss


رد مع اقتباس
 
 رقم المشاركة : ( 5 )
abdo 12
عضو
رقم العضوية : 35247
تاريخ التسجيل : Dec 2017
مكان الإقامة :
عدد المشاركات : 31
عدد النقاط : 1
قوة التقييم : abdo 12 is an unknown quantity at this point
جهات الاتصال :

abdo 12 غير متواجد حالياً

   

افتراضي

كُتب : [ 07-08-2018 ]


شكرا اخي العزيز


رد مع اقتباس
 
 رقم المشاركة : ( 6 )
mishal23
عضو جديد
رقم العضوية : 34204
تاريخ التسجيل : Jul 2017
مكان الإقامة :
عدد المشاركات : 4
عدد النقاط : 1
قوة التقييم : mishal23 is an unknown quantity at this point
جهات الاتصال :

mishal23 غير متواجد حالياً

   

افتراضي

كُتب : [ 08-08-2018 ]


thanx


رد مع اقتباس
 
 رقم المشاركة : ( 7 )
hany abduallah
عضو
رقم العضوية : 32530
تاريخ التسجيل : May 2015
مكان الإقامة :
عدد المشاركات : 46
عدد النقاط : 1
قوة التقييم : hany abduallah is an unknown quantity at this point
جهات الاتصال :

hany abduallah غير متواجد حالياً

   

افتراضي

كُتب : [ 18-09-2018 ]


thank you


رد مع اقتباس
إضافة رد

مواقع النشر (المفضلة)

الكلمات الدلالية (Tags)
1981, أميتاب, مترجم, وأمجد, ومشاهدة, اكشن, dvdrip, تحميل, خان, kaalia


الذين يشاهدون محتوى الموضوع الآن : 1 ( الأعضاء 0 والزوار 1)
 
أدوات الموضوع
انواع عرض الموضوع

تعليمات المشاركة
لا تستطيع إضافة مواضيع جديدة
لا تستطيع الرد على المواضيع
لا تستطيع إرفاق ملفات
لا تستطيع تعديل مشاركاتك

BB code is متاحة
كود [IMG] متاحة
كود HTML معطلة

الانتقال السريع


الساعة الآن 09:06 PM


Powered by vBulletin® Copyright ©2010 - 2018 Jelsoft Enterprises Ltd.
جميع ما ينشر من مواضيع و ردود تعبر عن رآي كاتبها فقط