العودة   :: EgyStars :: > المنتدي الفني > أفلام هندي > قسم مكتبات ابطال الافلام الهندية

موضوع مغلق
 
أدوات الموضوع انواع عرض الموضوع
 
 رقم المشاركة : ( 3221 )
mazanka
عضو جديد
رقم العضوية : 35801
تاريخ التسجيل : Feb 2018
مكان الإقامة :
عدد المشاركات : 5
عدد النقاط : 1
قوة التقييم : mazanka is an unknown quantity at this point
جهات الاتصال :

mazanka غير متواجد حالياً

   

Syria Paandav (1995) Hindi.480p.HD.DvDRipx264.AAC.Hard.Eubs.Bollywooda2 z.BY juleyano

كُتب : [ 20-02-2018 ]


Paandav (1995) Hindi.480p.HD.DvDRipx264.AAC.Hard.Eubs.Bollywooda2 z.BY juleyano



Stars
Akshay Kumar,Nandini,Prithvi
Format : MPEG-4
Format profile : Base Media
Codec ID : isom (isom)
File size : 1.45 GiB
Duration : 2 h 32 min
Overall bit rate mode : Variable
Video
ID : 1
Format : AVC
Format/Info : Advanced Video Codec
Format profile : Main@L3.1
Format settings, CABAC : Yes
Format settings, RefFrames : 8 frames
Codec ID : avc1
Codec ID/Info : Advanced Video Coding
Duration : 2 h 32 min
Bit rate : 1 300 kb/s
Maximum bit rate : 4 823 kb/s
Width : 720 pixels
Height : 480 pixels
Display aspect ratio : 1.85:1
Frame rate mode : Constant
Frame rate : 29.970 (30000/1001) FPS
Standard : NTSC
Color space : YUV
Audio
ID : 2
Format : AAC
Format/Info : Advanced Audio Codec
Format profile : LC
Codec ID : 40
Duration : 2 h 32 min
Bit rate mode : Variable
Bit rate : 64.0 kb/s
Maximum bit rate : 70.7 kb/s
Channel(s) : 2 channels
Channel positions : Front: L R
Sampling rate : 48.0 kHz
Frame rate : 46.875 FPS (1024 SPF)
Compression mode : Lossy



1.45 GB



التعديل الأخير تم بواسطة juleyano ; 10-06-2022 الساعة 01:20 PM

 
 رقم المشاركة : ( 3222 )
juleyano
Moderator
الصورة الرمزية juleyano
رقم العضوية : 32054
تاريخ التسجيل : Nov 2014
مكان الإقامة : Portugal
عدد المشاركات : 15,097
عدد النقاط : 1
قوة التقييم : juleyano is an unknown quantity at this point
جهات الاتصال :

juleyano غير متواجد حالياً

   

افتراضي

كُتب : [ 21-02-2018 ]


Bhoot 2003 Hindi DvDRip x264 AC3 5.1.Esubs. Hon3y.by. juleyano


توقيع : juleyano


 
 رقم المشاركة : ( 3223 )
juleyano
Moderator
الصورة الرمزية juleyano
رقم العضوية : 32054
تاريخ التسجيل : Nov 2014
مكان الإقامة : Portugal
عدد المشاركات : 15,097
عدد النقاط : 1
قوة التقييم : juleyano is an unknown quantity at this point
جهات الاتصال :

juleyano غير متواجد حالياً

   

Syria Jyoti (1981) Hindi.WEBRip.ZEE5.x264.AC3.ESubs.BY juleyano

كُتب : [ 21-02-2018 ]


Jyoti (1981) Hindi.WEBRip.ZEE5.x264.AC3.ESubs.BY
juleyano



Stars
Jeetendra,Ashok Kumar,Aruna Irani,Hema Malini
Format : Matroska
Format version : Version 2
File size : 1.45 GiB
Duration : 2 h 15 min
Overall bit rate : 1 525 kb/s
Video
ID : 1
Format : AVC
Format/Info : Advanced Video Codec
Format profile : High@L3
Format settings : CABAC / 4 Ref Frames
Format settings, CABAC : Yes
Format settings, Reference frames : 4 frames
Codec ID : V_MPEG4/ISO/AVC
Duration : 2 h 15 min
Bit rate : 1 139 kb/s
Width : 680 pixels
Height : 480 pixels
Display aspect ratio : 1.417
Frame rate mode : Constant
Frame rate : 25.000 FPS
Color space : YUV
Audio
ID : 2
Format : AC-3
Format/Info : Audio Coding 3
Commercial name : Dolby Digital
Codec ID : A_AC3
Duration : 2 h 15 min
Bit rate mode : Constant
Bit rate : 384 kb/s
Channel(s) : 2 channels
Channel layout : L R
Sampling rate : 48.0 kHz
Frame rate : 31.250 FPS (1536 SPF)
Compression mode : Lossy
Text
ID : 3
Format : UTF-8
Codec ID : S_TEXT/UTF8
Codec ID/Info : UTF-8 Plain Text
Duration : 2 h 13 min
Bit rate : 63 b/s
Count of elements : 1829
Stream size : 61.4 KiB (0%)
Title : juleyano movies
Language : English
Default : Yes
Forced : No










1.45 GB



توقيع : juleyano



التعديل الأخير تم بواسطة juleyano ; 16-06-2022 الساعة 09:45 AM

 
 رقم المشاركة : ( 3224 )
juleyano
Moderator
الصورة الرمزية juleyano
رقم العضوية : 32054
تاريخ التسجيل : Nov 2014
مكان الإقامة : Portugal
عدد المشاركات : 15,097
عدد النقاط : 1
قوة التقييم : juleyano is an unknown quantity at this point
جهات الاتصال :

juleyano غير متواجد حالياً

   

افتراضي

كُتب : [ 21-02-2018 ]


ddddddddddddddddddddddddddddddddddd


توقيع : juleyano



التعديل الأخير تم بواسطة juleyano ; 28-09-2020 الساعة 01:36 PM

 
 رقم المشاركة : ( 3225 )
juleyano
Moderator
الصورة الرمزية juleyano
رقم العضوية : 32054
تاريخ التسجيل : Nov 2014
مكان الإقامة : Portugal
عدد المشاركات : 15,097
عدد النقاط : 1
قوة التقييم : juleyano is an unknown quantity at this point
جهات الاتصال :

juleyano غير متواجد حالياً

   

Syria Zakhmi Sipahi (1995) Hindi.WEB.DL.1080p.ZEE5.x264.AAC.ESubs.BY juleyano

كُتب : [ 21-02-2018 ]


Zakhmi Sipahi (1995) Hindi.WEB.DL.1080p.ZEE5.x264.AAC.ESubs.BY juleyano



Stars
Vikas Anand,Mithun Chakraborty,Puneet Issar
Format : Matroska
Format version : Version 4
File size : 1.83 GiB
Duration : 2 h 23 min
Overall bit rate : 1 828 kb/s
Video
ID : 1
Format : AVC
Format/Info : Advanced Video Codec
Format profile : High@L4.1
Format settings : CABAC / 4 Ref Frames
Format settings, CABAC : Yes
Format settings, Reference frames : 4 frames
Codec ID : V_MPEG4/ISO/AVC
Duration : 2 h 23 min
Nominal bit rate : 1 600 kb/s
Width : 1 888 pixels
Height : 1 080 pixels
Display aspect ratio : 1.916
Frame rate mode : Constant
Frame rate : 25.000 FPS
Color space : YUV
Audio
ID : 2
Format : AAC LC
Format/Info : Advanced Audio Codec Low Complexity
Codec ID : A_AAC-2
Duration : 2 h 23 min
Channel(s) : 2 channels
Channel layout : L R
Sampling rate : 48.0 kHz
Frame rate : 46.875 FPS (1024 SPF)
Compression mode : Lossy
Text
ID : 3
Format : ASS
Codec ID : S_TEXT/ASS
Codec ID/Info : Advanced Sub Station Alpha
Compression mode : Lossless
Language : English
Default : Yes
Forced : Yes














1.83 GB



الملفات المرفقة لايمكنك تحميل المرفقات الا بعد الرد على الموضوع
توقيع : juleyano



التعديل الأخير تم بواسطة juleyano ; 21-06-2022 الساعة 01:21 PM

 
 رقم المشاركة : ( 3226 )
juleyano
Moderator
الصورة الرمزية juleyano
رقم العضوية : 32054
تاريخ التسجيل : Nov 2014
مكان الإقامة : Portugal
عدد المشاركات : 15,097
عدد النقاط : 1
قوة التقييم : juleyano is an unknown quantity at this point
جهات الاتصال :

juleyano غير متواجد حالياً

   

Syria Karmayogi (1978) DvDRipx264.AAC.E.Subs.Chapters.BY.juleyano

كُتب : [ 22-02-2018 ]


Karmayogi (1978) DvDRipx264.AAC.E.Subs.Chapters.BY.juleyano



Stars: Mala Sinha, Raaj Kumar, Jeetendra |
Format : Matroska
Format version : Version 4 / Version 2
File size : 965 MiB
Duration : 2 h 27 min
Overall bit rate : 913 kb/s
Encoded date : UTC 2016-07-10 18:48:36
Video
ID : 1
Format : AVC
Format/Info : Advanced Video Codec
Format profile : High@L3.1
Format settings : CABAC / 8 Ref Frames
Format settings, CABAC : Yes
Format settings, RefFrames : 8 frames
Codec ID : V_MPEG4/ISO/AVC
Duration : 2 h 27 min
Bit rate : 815 kb/s
Width : 720 pixels
Height : 540 pixels
Display aspect ratio : 4:3
Frame rate mode : Constant
Frame rate : 23.976 (24000/1001) FPS
Color space : YUV
Audio
ID : 2
Format : AAC
Format/Info : Advanced Audio Codec
Format profile : LC
Codec ID : A_AAC-2
Duration : 2 h 27 min
Bit rate : 96.0 kb/s
Channel(s) : 2 channels
Channel positions : Front: L R
Sampling rate : 48.0 kHz
Frame rate : 46.875 FPS (1024 SPF)
Compression mode : Lossy
Text
ID : 3
Format : UTF-8
Codec ID : S_TEXT/UTF8
Codec ID/Info : UTF-8 Plain Text
Duration : 2 h 26 min
Bit rate : 45 b/s
Count of elements : 1295
Stream size : 48.7 KiB (0%)
Language : English
Menu
00:00:00.000 : en:Chapter 01
00:00:10.010 : en:Chapter 02








964.64 MB



توقيع : juleyano


 
 رقم المشاركة : ( 3227 )
juleyano
Moderator
الصورة الرمزية juleyano
رقم العضوية : 32054
تاريخ التسجيل : Nov 2014
مكان الإقامة : Portugal
عدد المشاركات : 15,097
عدد النقاط : 1
قوة التقييم : juleyano is an unknown quantity at this point
جهات الاتصال :

juleyano غير متواجد حالياً

   

Syria Happy Bhag Jayegi (2016) 1080p Hindi Untouched WEB-DLx264.AC3. Arabic.E.SubS . Hon3y.HD.bye.juleyano

كُتب : [ 23-02-2018 ]


Happy Bhag Jayegi (2016) 1080p Hindi Untouched WEB-DLx264.AC3. Arabic.E.SubS . Hon3y.HD.bye.juleyano



Stars: Diana Penty, Abhay Deol, Jimmy Shergill |
Format : Matroska
Format version : Version 2
File size : 1.26 GiB
Duration : 2 h 5 min
Overall bit rate : 1 428 kb/s
Writing application : HandBrake 0.10.0 2014112200
Writing library : Lavf55.12.0
Video
ID : 1
Format : AVC
Format/Info : Advanced Video Codec
Format profile : High@L3.1
Format settings : CABAC / 4 Ref Frames
Format settings, CABAC : Yes
Format settings, RefFrames : 4 frames
Codec ID : V_MPEG4/ISO/AVC
Duration : 2 h 5 min
Bit rate : 1 200 kb/s
Width : 1 280 pixels
Height : 544 pixels
Display aspect ratio : 2.35:1
Frame rate mode : Constant
Frame rate : 23.976 (24000/1001) FPS
Color space : YUV
Audio
ID : 2
Format : AC-3
Format/Info : Audio Coding 3
Codec ID : A_AC3
Duration : 2 h 5 min
Bit rate mode : Constant
Bit rate : 224 kb/s
Channel(s) : 2 channels
Channel positions : Front: L R
Sampling rate : 48.0 kHz
Frame rate : 31.250 FPS (1536 SPF)
Bit depth : 16 bits
Compression mode : Lossy







1.25 GB

الترجمة العربية الاحترافية بالرابط التالي



توقيع : juleyano



التعديل الأخير تم بواسطة juleyano ; 23-02-2018 الساعة 12:15 AM

 
 رقم المشاركة : ( 3228 )
juleyano
Moderator
الصورة الرمزية juleyano
رقم العضوية : 32054
تاريخ التسجيل : Nov 2014
مكان الإقامة : Portugal
عدد المشاركات : 15,097
عدد النقاط : 1
قوة التقييم : juleyano is an unknown quantity at this point
جهات الاتصال :

juleyano غير متواجد حالياً

   

Syria Mera Dharam (1986) Hindi.WEB.Ripx264.AC3.ESubs.BY juleyano

كُتب : [ 23-02-2018 ]


Mera Dharam (1986) Hindi.WEB.Ripx264.AC3.ESubs.BY juleyano



Stars
Jackie Shroff,Amrita Singh,Shakti Kapoor
Format : Matroska
Format version : Version 2
File size : 1.76 GiB
Duration : 2 h 17 min
Overall bit rate : 1 824 kb/s
Video
ID : 1
Format : AVC
Format/Info : Advanced Video Codec
Format profile : High@L3
Format settings : CABAC / 4 Ref Frames
Format settings, CABAC : Yes
Format settings, Reference frames : 4 frames
Codec ID : V_MPEG4/ISO/AVC
Duration : 2 h 17 min
Bit rate : 1 438 kb/s
Width : 720 pixels
Height : 320 pixels
Display aspect ratio : 2.25:1
Frame rate mode : Constant
Frame rate : 25.000 FPS
Color space : YUV
Audio
ID : 2
Format : AC-3
Format/Info : Audio Coding 3
Commercial name : Dolby Digital
Codec ID : A_AC3
Duration : 2 h 17 min
Bit rate mode : Constant
Bit rate : 384 kb/s
Channel(s) : 2 channels
Channel layout : L R
Sampling rate : 48.0 kHz
Frame rate : 31.250 FPS (1536 SPF)
Compression mode : Lossy
Text
ID : 3
Format : UTF-8
Codec ID : S_TEXT/UTF8
Codec ID/Info : UTF-8 Plain Text
Duration : 2 h 16 min
Bit rate : 40 b/s
Count of elements : 1251
Stream size : 40.7 KiB (0%)
Title : juleyano movies
Language : English
Default : Yes
Forced : No











1.76 GB



توقيع : juleyano



التعديل الأخير تم بواسطة juleyano ; 19-06-2022 الساعة 10:05 PM

 
 رقم المشاركة : ( 3229 )
زهرة الياسمين
عضو ممتاز
الصورة الرمزية زهرة الياسمين
رقم العضوية : 32126
تاريخ التسجيل : Dec 2014
مكان الإقامة : فلسطين __ غزة
عدد المشاركات : 773
عدد النقاط : 21
قوة التقييم : زهرة الياسمين is on a distinguished road
جهات الاتصال :

زهرة الياسمين غير متواجد حالياً

   

افتراضي

كُتب : [ 23-02-2018 ]


تسلم الايادي ربنا يعطيك العافية يا غالي


توقيع : زهرة الياسمين

صلي علي النبي :)

 
 رقم المشاركة : ( 3230 )
صطوف21
عضو نشيط
رقم العضوية : 32791
تاريخ التسجيل : Nov 2015
مكان الإقامة :
عدد المشاركات : 495
عدد النقاط : 1
قوة التقييم : صطوف21 is an unknown quantity at this point
جهات الاتصال :

صطوف21 غير متواجد حالياً

   

Syria Dil Kaa Heera (1979) Hindi.WEB.Rip.ZEE5.x264.AC3.BY juleyano

كُتب : [ 23-02-2018 ]


Dil Kaa Heera (1979) Hindi.WEB.Rip.ZEE5.x264.AC3.BY juleyano



Stars
Dharmendr,aHema Malini,Abhi Bhattacharya
Format : Matroska
Format version : Version 2
File size : 1.45 GiB
Duration : 2 h 29 min
Overall bit rate : 1 387 kb/s
Video
ID : 1
Format : AVC
Format/Info : Advanced Video Codec
Format profile : High@L3
Format settings : CABAC / 4 Ref Frames
Format settings, CABAC : Yes
Format settings, Reference frames : 4 frames
Codec ID : V_MPEG4/ISO/AVC
Duration : 2 h 29 min
Bit rate : 1 001 kb/s
Width : 584 pixels
Height : 480 pixels
Display aspect ratio : 1.217
Frame rate mode : Constant
Frame rate : 25.000 FPS
Color space : YUV
Audio
ID : 2
Format : AC-3
Format/Info : Audio Coding 3
Commercial name : Dolby Digital
Codec ID : A_AC3
Duration : 2 h 29 min
Bit rate mode : Constant
Bit rate : 384 kb/s
Channel(s) : 2 channels
Channel layout : L R
Sampling rate : 48.0 kHz
Frame rate : 31.250 FPS (1536 SPF)
Compression mode : Lossy









1.45 GB




التعديل الأخير تم بواسطة juleyano ; 21-06-2022 الساعة 01:23 PM

موضوع مغلق

مواقع النشر (المفضلة)

الكلمات الدلالية (Tags)
۩۞۩, 1080p, 15, 1951, 1952, 1962, 1963, 1964, 1967, 1968, 1970, 1971, 1972, 1973, 1974, 1975, 1976, 1977, 1979, 1980, 1981, 1981dvdrip, 1982, 1983, 1984, 1985, 1985dvdrip, 1986, 1987, 1988webrip, 1989, 1990, 1991, 1992, 1993, 1994, 1995, 1996, 1997, 1998, 1999, 1cd, 1cddvdrip, 1cddvdripx264aacesubs, 1cddvdripxvidaacarabicesubmenbyjuleyano, 2, 2000, 2001, 2003, 2004, 2005, 2006, 2007, 2008, 2010, 2011, 2012, 2013, 2014, 2015, 2016, 2017, 2cd, 3, 40, 480p, 51, 51arabicesubsdusbyjuleyano, 51chapters, 51engsubhon3ybyjuleyano, 51esubs, 51esubshon3ybyjuleyano, 702, 720, 720p, 720pbluray, 720pbrripx264, 720pbrripx264aac51arabicesubhon3ybyjuleya, 720pbrripx264aac51arabicesubhon3ybyjuleyano, 720pdvdrip, aac, aac51arabicesubs, aacarabicesubbyjuleyano, aacarabicesubs, aacesubshon3ybyjuleyano, aadmi, aakhri, aamir, aan, aashiq, ac3, ac3alicbyjuleyano, ac3arabicesubbyjuleyan, ac3arabicesubsby, ac3arabicsub, ac3byjuleyano, ac3ehardsubby, ac3esubbyjuleyano, ac3esubchapters, ac3esubs, ac3esubsalicetdbbbyjuleyano, ac3hardesubsby, acarabicesubs, acesubchapters, acesubsonic, action, adhikari, agent, agneepath2012, akbar, akele, ali, alice, alicetdbbbyjuleyano, alictdbbbyjuleyano, amaanat, amr, andar, angrakshak, anjaan, ano, anuraag, apna, arabic, arabicesub, arabicesubs, arb, arth, ashanti, aur, avi, awara, للنجم, للاخوة, للكبار, للعربية, للفيلم, لميثون, لأكشاى, لأكشى, لأعمال, لانني, لاجاى, لايجاد, لاخي, لاكشى, لتحديث, لجون, لدارمندرا, لدي, لريتك, لسلمان, لسونى, لسيف, لشاهيد, لشاروخ, لشاروخان, لكافة, لعامر, لغاية, لفتح, لفترة, لفيلم, من, أنيل, مندرا, أو, موضوع, مباشر, مترجم, مترجمة, أترك, أجاى, ميت, ميثون, ميجا, مدبلج, أرجو, أرجون, مساحة, مسجلة, أشوريا, مشاهدة, أصلية, مُترجم, مكتبة, أكشن, مع, معي, مغلق, مغامرات, أفلام, مقطع, نداء, نسخ, نسخة, إلى, هاشمى, هدا, و, ومانسى الكوميدى cocktail.2012 لسيف على خان, وميثون, ومشاهدة, والله, والأثارة, والمُغامرة, والمعامرات, والأعضاء, والمغامرات, والإثارة, والجريمة, والحصرية, والخيال, وامريش, وانيل, واثارة, وادهم, وبجودة, وتورنت, وتابو, ويرجى, ودارا, ورابط, وزينات, وسوناكشى, وسونكشى, وسريديفى, وشاهيد, وشاهدة, وطلب, وكاترينا, وكاجول, وكارينا, وعمل, وغموض, baadshah, baahar, baahubali, baaraat, baazi, baba, babu, back, bajrangi, bakshy, bang, bang bang 2014, barood, bawarchi, beginning, bengal, bengali, bewakoofiyaan, bezubaan, bhag, bhaijaan2015, bhoot, biwi, bluray, bobby, bollywood, boss, brahmachari1968dvdripxvidmp3subsmenbyjuley, brahmachari1968dvdripxvidmp3subsmenbyjuleyano, brothers, byejuleyano, byjuleyano, byomkesh, chabbis2013, chak, channelsac3esub, channelsesubbyjuleyano, chaps, chemmeen, chennai, china, chor, cocktail2012, commando1988, الملكية, الألغاز, المميز, المواضيع, المتألق, المتميزة, المتاحة, المترجمين, المثير, المجموعة, المحترمين, الأخ, المساعدة, الأسطورة, المُنتظر, المكاتب, الأكشن, المغلقة, النادر, النجم, الهندي, الهندية, الهارد, الانجليزية, الاخوه, الاخوة, الاكشن, الاعزاء, الاعضاء, الافلام, التواصل, التحميل, الترجمات, الترجمة, الج, الجميل, الجودة, الجديد, الجريمة, الحياة, الخليجية, الخيالى, الديسك, الرومانس, الرومانسى, الرومانسي, الروابط, الرائع, السينما, السياسي, الكوميدى, الكوميدي, الكوميديا, الكاملة, الكرام, العلمى, العافية, العربية, الغالي, الف, الفيل, الفيلم, امان, اذنكم, ابو, ابراهام, ابراهيم, اجاى, احدث, اخوكم, ارجون, اصلاح, اصلية, اكشن, اغلاق, افلام, daag, dabangg, dacait1987, dahleez, daku, darbyjuleyano, dday2013, ddr, de, deeka, deewana, desh, detective, dharam, dharm, dhoom, dil, dill, dilwale, don, drishyam, dudeluciferbyjuleyano, dulha, duplicate1998, dushmani, dvd, dvdr, dvdrip, dvdrip720px264aacarabicenglish, dvdripx264, dvdripx264aac, dvdripx264aac51esubsdusbyjuleyano, dvdripx264aacesubschaptersbyjuleyano, dvdripx264ac3engsubschaptersbyjuleyano, dvdripx264ac3esub51byjuleyano, dvdripx264ac3esubs, dvdripx264ac3un51, dvdripx264acesubschaptersbyjuleyano, dvdripxvid6, dvdripxvidac3arabicesubsbye, dvdripxvidac3arabicesubstuhinbyjuleyano, dvdripxvidac3englishgermansubsddr, dvdripxvidac3ensubbyjuleyano, dvdripxvidmp3esub, dvdripxvidmp3hardesubbyjuleyano, dvdripxxvidac36, dvdscr, eena, effects, ek, ekthidaayan2013, entertainment, esub, esubbyjuleyan, esubbyjuleyano, esubs, esubsby, esubsbyjuleyano, esubschapters, exdt, exdxmr, express, بهى, بورتي, بورى, باللهجة, باللغة, بالموقع, بالعربي, باقة, بجودة, بحجم, بخصوص, برينكا, بسبب, بعض, تاريخى, تجميل, تيليوغو, تحميل, تعبت, تعديل, farz, fhd, film, film hindi, gabr, gali, ganga, gangster, gaya, ghar, ghatak, ghayal, ghulami, gola, goliyon, gunday, haathi, hai, happy, haqeeqat, hawaldar, hd, hdrip, heere, henna, hero, hero2013, hindi, hindiwebripx264ac3esubbyjuleyano, ho, hon3yby, hon3ybyjuleyano, hon3yhdbyejuleyano, hum, ii, impossible, india, inkaar2013, insan, international, izzatdaar, جميع, جول, جوليانو, جولياتو, جاكي, جيجا, جد, حذفت, حتى, حتى أترك الحياة, يجودة, حصريا, حصريــــــا, يعطيك, حقوق, خان, خانandابشيك, خانandكارينا, دارمندرا, ديول, ديفجان, jaag, jaan, jaan2012, jab, jab tak hai jaan2012, jackson, jagir, jai, jamai, janta, jasoos, jayegi, jessica, jodhaa, juleyano, jung, kaal, kachche, kalpurush, kanon, kanoon, kanoon1993, kanyadaan, kasam, kayda, ke, khan, khiladi, khoobsurat, khote, khudgarz, ki, kick, kill, killed, kranti, krrish3, kurukshetra, leela, leyano, love, maafia, mahal, mahatma, maidanejung, maili, main, majboor, mbc, mbg, meena, meranaamjoker, mere, mhd, mickey, mil, mkv, mohra, mp3, mp3english, mr, mrs, mukti, muqabla, murder, muskaan, nache, nagin, namaste, nikhla, ntsc, رومانسى, روائع, روخان, روشان, رامبال, راح, ريشى, رعب, onebytwo2014, سلمان, سنة, سونى, سانجيف, سارتاح, سينها, سيتم, سيرفرات, سيف, شوبرا, شاه, شاه روخان و الأسطورة, شاهيد, شاروخ, شاروخان, شاروف, شاكرا, شكر, شكربورتى, شكربورتي, صور, صديقى, طلب, ط§ظ„ط§ط®ظˆظ‡, ط§ظ„ط§ظپظ„ط§ظ…, ط§ظ„ظپظٹظ„ظ…, ط¬ظ…ظٹط¹, طµظˆط±, ط·ظ„ط¨, pagal, paheli, palay, parwane1993, phantombyjuleyano, phata, pk, poem, poster, pratigyabadh, premee, pum, pyaar, qahar, qayamt, ra, raahen, raaj, raasleela, raasta, raat, raavan, race, rajkumar, ram, ramayya, ramleela, rang, rangoon, raone, ravan, rdybyjuleyano, returns, returns2014, ripaacultravideocdbyjuleyano, ripx264ac3arabicesubbyjuleyano, rmvb, romance, rounder, rum, saathi, saheb, salaakhen, salaam, sangam, sangamcddvdripxvidmp3arabicesubsbyju, sangamcddvdripxvidmp3arabicesubsbyjuleyano, sangeet, sankat, sardaar2012, shaadi, side, sikkay, singham, sipahi, soldier, son, souten, special, story, student, subramanyam, subsbyjuleyano, كومار, كوميدى, كابور, كتير, كيف, t a g s, ta, taal, taj, tak, talaash2012, tdbbbyjuleyano, teamtellybyjuleyano, teri, tevar, tha, tiger, tilak, tmb, tmbbyjuleyano, town, true, tu, tum, tv, tvrip, untouched, utha, ظ…ظ‚ط·ط¹, ظ…ظ†, ظ‡ط¯ط§, على, عمر, عمران, عن, عالية, عامر, عائلى, عربي, غموض, غ©غ‍غ©, v2, vastavaiya, vcd, veer, veerta, vidhaata, villain, vinod, virus2013, vishnudevaa, vivah, webdlx264ac3, webrip, webripmp3byjuleyano, webx264ac3esubsbyjuleyano, x1ac3byjuleyano, x1und, x264, x264aac, x264aac51, x264aac51arabicesubschaptersbyjuleyano, x264aacarabicesubschapters, x264aacengsubbyjuleyano, x264aacesubbyjuleyano, x264aachardesubsbyjuleyano, x264ac36arabic, x264ac3arabic, x264ac3arabicesubbyjuleyano, x264ac3arabicesubs51byjuleyano, x264ac3arabicesubsbyjuleyan, x264ac3byjuleyano, x264ac3chapters, x264ac3engsub51chaptersbyjuleyano, x264ac3engsubchapters, x264ac3engsubsbyjuleyano, x264ac3esubbyjuleyano, x264ac3esubs, x264ac3esubschaptersbyjuleyano, x264ac3hardesubbyjuleyano, x264mp3arabicesubs, xmrbyjuleyano, xvid, xvidacarabicesubs, yaadon, yari, year, yevade, فيلم, فيلم هندى نادر, فقط, zabardast, zamana, zameen, zanjeer2013, ziddi1997


الذين يشاهدون محتوى الموضوع الآن : 1 ( الأعضاء 0 والزوار 1)
 
أدوات الموضوع
انواع عرض الموضوع

تعليمات المشاركة
لا تستطيع إضافة مواضيع جديدة
لا تستطيع الرد على المواضيع
لا تستطيع إرفاق ملفات
لا تستطيع تعديل مشاركاتك

BB code is متاحة
كود [IMG] متاحة
كود HTML معطلة

الانتقال السريع


الساعة الآن 09:16 AM


Powered by vBulletin® Copyright ©2010 - 2022 Jelsoft Enterprises Ltd.
جميع ما ينشر من مواضيع و ردود تعبر عن رآي كاتبها فقط