العودة   :: EgyStars :: > المنتدي الفني > أفلام هندي > قسم مكتبات ابطال الافلام الهندية

موضوع مغلق
 
أدوات الموضوع انواع عرض الموضوع
 
 رقم المشاركة : ( 201 )
max devil
عضو نشيط
رقم العضوية : 786
تاريخ التسجيل : Feb 2011
مكان الإقامة :
عدد المشاركات : 125
عدد النقاط : 10
قوة التقييم : max devil is on a distinguished road
جهات الاتصال :

max devil غير متواجد حالياً

   

افتراضي

كُتب : [ 28-03-2012 ]


Naya Din Nai Raat (1974) WeBRip.Hindi x264.AC3.ESubs.BY.juleyano



Stars
Sanjeev Kumar,Jaya Bachchan,Sunder/
Format : Matroska
Format version : Version 2
File size : 1 011 MiB
Duration : 2 h 12 min
Overall bit rate : 1 065 kb/s
Video
ID : 1
Format : AVC
Format/Info : Advanced Video Codec
Format profile : High@L3
Format settings : CABAC / 4 Ref Frames
Format settings, CABAC : Yes
Format settings, Reference frames : 4 frames
Codec ID : V_MPEG4/ISO/AVC
Duration : 2 h 12 min
Bit rate : 679 kb/s
Width : 720 pixels
Height : 408 pixels
Display aspect ratio : 16:9
Frame rate mode : Constant
Frame rate : 25.000 FPS
Color space : YUV
Audio
ID : 2
Format : AC-3
Format/Info : Audio Coding 3
Commercial name : Dolby Digital
Codec ID : A_AC3
Duration : 2 h 12 min
Bit rate mode : Constant
Bit rate : 384 kb/s
Channel(s) : 2 channels
Channel layout : L R
Sampling rate : 48.0 kHz
Frame rate : 31.250 FPS (1536 SPF)
Compression mode : Lossy
Text
ID : 3
Format : UTF-8
Codec ID : S_TEXT/UTF8
Codec ID/Info : UTF-8 Plain Text
Duration : 2 h 11 min
Bit rate : 58 b/s
Count of elements : 1829
Stream size : 56.6 KiB (0%)
Title : juleyano movies
Language : English
Default : Yes
Forced : No









1010.91 MB



التعديل الأخير تم بواسطة juleyano ; 07-12-2021 الساعة 09:23 AM

 
 رقم المشاركة : ( 202 )
dodo10
عضو جديد
رقم العضوية : 10188
تاريخ التسجيل : Nov 2011
مكان الإقامة :
عدد المشاركات : 15
عدد النقاط : 1
قوة التقييم : dodo10 is an unknown quantity at this point
جهات الاتصال :

dodo10 غير متواجد حالياً

   

افتراضي

كُتب : [ 13-04-2012 ]


mer ciiiiiiiiiiiiiiiiiiiiiiiiiiiiiiiiiiiiii


 
 رقم المشاركة : ( 203 )
nonamm
عضو جديد
رقم العضوية : 16368
تاريخ التسجيل : Apr 2012
مكان الإقامة :
عدد المشاركات : 4
عدد النقاط : 1
قوة التقييم : nonamm is an unknown quantity at this point
جهات الاتصال :

nonamm غير متواجد حالياً

   

افتراضي

كُتب : [ 16-04-2012 ]


thank u so much


 
 رقم المشاركة : ( 204 )
nonamm
عضو جديد
رقم العضوية : 16368
تاريخ التسجيل : Apr 2012
مكان الإقامة :
عدد المشاركات : 4
عدد النقاط : 1
قوة التقييم : nonamm is an unknown quantity at this point
جهات الاتصال :

nonamm غير متواجد حالياً

   

افتراضي

كُتب : [ 16-04-2012 ]


Arzoo (1950) Hindi.WEBRipX264.AAC
LC.Arabic,ESub.By.juleyano

تم سحب النسخة والترجمة العربية والانكليزي من Eros Now ولم ندققها ان كان اخطاء وتم سحب الترجمات من قبل الاخ الغالي عمر والنسخة تم عملها من قبلي



Stars
Kamini Kaushal,Dilip Kumar,Shashikala
Format : Matroska
Format version : Version 4
File size : 1.14 GiB
Duration : 2 h 8 min
Overall bit rate : 1 273 kb/s
Video
ID : 1
Format : AVC
Format/Info : Advanced Video Codec
Format profile : High@L3
Format settings : CABAC / 4 Ref Frames
Format settings, CABAC : Yes
Format settings, Reference frames : 4 frames
Codec ID : V_MPEG4/ISO/AVC
Duration : 2 h 8 min
Bit rate : 1 228 kb/s
Width : 640 pixels
Height : 480 pixels
Display aspect ratio : 4:3
Frame rate mode : Constant
Frame rate : 25.000 FPS
Color space : YUV
Audio
ID : 2
Format : AAC LC
Format/Info : Advanced Audio Codec Low Complexity
Codec ID : A_AAC-2
Duration : 2 h 8 min
Bit rate : 48.0 kb/s
Channel(s) : 2 channels
Channel layout : L R
Sampling rate : 48.0 kHz
Frame rate : 46.875 FPS (1024 SPF)
Compression mode : Lossy
Text
ID : 3
Format : S_TEXT/WEBVTT
Codec ID : S_TEXT/WEBVTT
Duration : 2 h 6 min
Bit rate : 49 b/s
Count of elements : 640
Stream size : 46.1 KiB (0%)
Default : Yes
Forced : No









1.15 GB

الترجمة بالرابط التالي




التعديل الأخير تم بواسطة juleyano ; 07-12-2021 الساعة 09:25 AM

 
 رقم المشاركة : ( 205 )
zino1
عضو جديد
رقم العضوية : 11554
تاريخ التسجيل : Dec 2011
مكان الإقامة :
عدد المشاركات : 17
عدد النقاط : 1
قوة التقييم : zino1 is an unknown quantity at this point
جهات الاتصال :

zino1 غير متواجد حالياً

   

افتراضي

كُتب : [ 17-04-2012 ]


merciiiiiiiiiiiii


 
 رقم المشاركة : ( 206 )
moulaw
عضو جديد
رقم العضوية : 16776
تاريخ التسجيل : Apr 2012
مكان الإقامة :
عدد المشاركات : 1
عدد النقاط : 1
قوة التقييم : moulaw is an unknown quantity at this point
جهات الاتصال :

moulaw غير متواجد حالياً

   

افتراضي

كُتب : [ 21-04-2012 ]


Andaz (1949) Hindi.WEBRipX264.AAC
LC.Arabic.ESub.5.1.By.juleyano


Stars
Nargis,Dilip Kumar,Raj Kapoor
Format : Matroska
Format version : Version 4
File size : 1.29 GiB
Duration : 2 h 20 min
Overall bit rate : 1 310 kb/s
Video
ID : 1
Format : AVC
Format/Info : Advanced Video Codec
Format profile : High@L4.1
Format settings : CABAC / 4 Ref Frames
Format settings, CABAC : Yes
Format settings, Reference frames : 4 frames
Codec ID : V_MPEG4/ISO/AVC
Duration : 2 h 20 min
Nominal bit rate : 1 200 kb/s
Width : 624 pixels
Height : 480 pixels
Display aspect ratio : 4:3
Frame rate mode : Constant
Frame rate : 25.000 FPS
Color space : YUV
Audio
ID : 2
Format : AAC LC
Format/Info : Advanced Audio Codec Low Complexity
Codec ID : A_AAC-2
Duration : 2 h 20 min
Channel(s) : 2 channels
Channel layout : L R
Sampling rate : 48.0 kHz
Frame rate : 46.875 FPS (1024 SPF)
Compression mode : Lossy
Text #1
ID : 3
Format : ASS
Codec ID : S_TEXT/ASS
Codec ID/Info : Advanced Sub Station Alpha
Duration : 2 h 20 min
Compression mode : Lossless
Title : juleyano movies
Language : English
Default : Yes
Forced : Yes










1.29 GB

الترجمة العربية الاحترافية بالرابط التالي




التعديل الأخير تم بواسطة juleyano ; 07-12-2021 الساعة 09:26 AM

 
 رقم المشاركة : ( 207 )
نبع البارود
عضو
رقم العضوية : 953
تاريخ التسجيل : Feb 2011
مكان الإقامة :
عدد المشاركات : 82
عدد النقاط : 10
قوة التقييم : نبع البارود is on a distinguished road
جهات الاتصال :

نبع البارود غير متواجد حالياً

   

افتراضي

كُتب : [ 28-04-2012 ]


thankssssssssss


 
 رقم المشاركة : ( 208 )
zino1
عضو جديد
رقم العضوية : 11554
تاريخ التسجيل : Dec 2011
مكان الإقامة :
عدد المشاركات : 17
عدد النقاط : 1
قوة التقييم : zino1 is an unknown quantity at this point
جهات الاتصال :

zino1 غير متواجد حالياً

   

افتراضي

كُتب : [ 29-04-2012 ]


Judge Mujrim (1997)
Hindi.720p.DvDRip.X264.AAC LC.BY Juleyano



Action
Stars: Jeetendra, Sunil Shetty, Sujata Mehta
Format : Matroska
Format version : Version 4
File size : 1.38 GiB
Duration : 2 h 17 min
Overall bit rate : 1 438 kb/s
Video
ID : 1
Format : AVC
Format/Info : Advanced Video Codec
Format profile : High@L4.1
Format settings : CABAC / 4 Ref Frames
Format settings, CABAC : Yes
Format settings, Reference frames : 4 frames
Codec ID : V_MPEG4/ISO/AVC
Duration : 2 h 17 min
Nominal bit rate : 1 200 kb/s
Width : 1 280 pixels
Height : 544 pixels
Display aspect ratio : 2.35:1
Frame rate mode : Constant
Frame rate : 25.000 FPS
Color space : YUV
Audio
ID : 2
Format : AAC LC
Format/Info : Advanced Audio Codec Low
Complexity
Codec ID : A_AAC-2
Duration : 2 h 17 min
Channel(s) : 2 channels
Channel layout : L R
Sampling rate : 48.0 kHz
Frame rate : 46.875 FPS (1024 SPF)
Compression mode : Lossy










1.38 GB




التعديل الأخير تم بواسطة juleyano ; 07-12-2021 الساعة 09:27 AM

 
 رقم المشاركة : ( 209 )
zino1
عضو جديد
رقم العضوية : 11554
تاريخ التسجيل : Dec 2011
مكان الإقامة :
عدد المشاركات : 17
عدد النقاط : 1
قوة التقييم : zino1 is an unknown quantity at this point
جهات الاتصال :

zino1 غير متواجد حالياً

   

افتراضي

كُتب : [ 29-04-2012 ]


merciiiiiiiiiiii


 
 رقم المشاركة : ( 210 )
dodo10
عضو جديد
رقم العضوية : 10188
تاريخ التسجيل : Nov 2011
مكان الإقامة :
عدد المشاركات : 15
عدد النقاط : 1
قوة التقييم : dodo10 is an unknown quantity at this point
جهات الاتصال :

dodo10 غير متواجد حالياً

   

افتراضي

كُتب : [ 29-04-2012 ]


Jawaab (1985) Hindi.WEBRipX264.AC3.ESub.By.juleyano



Stars
Suresh Oberoi,Raj Babbar,Smita Patil
Format : Matroska
Format version : Version 2
File size : 1.45 GiB
Duration : 2 h 19 min
Overall bit rate : 1 483 kb/s
Video
ID : 1
Format : AVC
Format/Info : Advanced Video Codec
Format profile : High@L3
Format settings : CABAC / 4 Ref Frames
Format settings, CABAC : Yes
Format settings, Reference frames : 4 frames
Codec ID : V_MPEG4/ISO/AVC
Duration : 2 h 19 min
Bit rate : 1 097 kb/s
Width : 720 pixels
Height : 408 pixels
Display aspect ratio : 16:9
Frame rate mode : Constant
Frame rate : 25.000 FPS
Color space : YUV
Audio
ID : 2
Format : AC-3
Format/Info : Audio Coding 3
Commercial name : Dolby Digital
Codec ID : A_AC3
Duration : 2 h 19 min
Bit rate mode : Constant
Bit rate : 384 kb/s
Channel(s) : 2 channels
Channel layout : L R
Sampling rate : 48.0 kHz
Frame rate : 31.250 FPS (1536 SPF)
Compression mode : Lossy
Text
ID : 3
Format : UTF-8
Codec ID : S_TEXT/UTF8
Codec ID/Info : UTF-8 Plain Text
Duration : 2 h 17 min
Bit rate : 63 b/s
Count of elements : 1880
Stream size : 64.0 KiB (0%)
Title : juleyano movies
Language : English
Default : Yes
Forced : No









1.45 GB



التعديل الأخير تم بواسطة juleyano ; 07-12-2021 الساعة 09:27 AM

موضوع مغلق

مواقع النشر (المفضلة)

الكلمات الدلالية (Tags)
۩۞۩, 1080p, 15, 1951, 1952, 1962, 1963, 1964, 1967, 1968, 1970, 1971, 1972, 1973, 1974, 1975, 1976, 1977, 1979, 1980, 1981, 1981dvdrip, 1982, 1983, 1984, 1985, 1985dvdrip, 1986, 1987, 1988webrip, 1989, 1990, 1991, 1992, 1993, 1994, 1995, 1996, 1997, 1998, 1999, 1cd, 1cddvdrip, 1cddvdripx264aacesubs, 1cddvdripxvidaacarabicesubmenbyjuleyano, 2, 2000, 2001, 2003, 2004, 2005, 2006, 2007, 2008, 2010, 2011, 2012, 2013, 2014, 2015, 2016, 2017, 2cd, 3, 40, 480p, 51, 51arabicesubsdusbyjuleyano, 51chapters, 51engsubhon3ybyjuleyano, 51esubs, 51esubshon3ybyjuleyano, 702, 720, 720p, 720pbluray, 720pbrripx264, 720pbrripx264aac51arabicesubhon3ybyjuleya, 720pbrripx264aac51arabicesubhon3ybyjuleyano, 720pdvdrip, aac, aac51arabicesubs, aacarabicesubbyjuleyano, aacarabicesubs, aacesubshon3ybyjuleyano, aadmi, aakhri, aamir, aan, aashiq, ac3, ac3alicbyjuleyano, ac3arabicesubbyjuleyan, ac3arabicesubsby, ac3arabicsub, ac3byjuleyano, ac3ehardsubby, ac3esubbyjuleyano, ac3esubchapters, ac3esubs, ac3esubsalicetdbbbyjuleyano, ac3hardesubsby, acarabicesubs, acesubchapters, acesubsonic, action, adhikari, agent, agneepath2012, akbar, akele, ali, alice, alicetdbbbyjuleyano, alictdbbbyjuleyano, amaanat, amr, andar, angrakshak, anjaan, ano, anuraag, apna, arabic, arabicesub, arabicesubs, arb, arth, ashanti, aur, avi, awara, للنجم, للاخوة, للكبار, للعربية, للفيلم, لميثون, لأكشاى, لأكشى, لأعمال, لانني, لاجاى, لايجاد, لاخي, لاكشى, لتحديث, لجون, لدارمندرا, لدي, لريتك, لسلمان, لسونى, لسيف, لشاهيد, لشاروخ, لشاروخان, لكافة, لعامر, لغاية, لفتح, لفترة, لفيلم, من, أنيل, مندرا, أو, موضوع, مباشر, مترجم, مترجمة, أترك, أجاى, ميت, ميثون, ميجا, مدبلج, أرجو, أرجون, مساحة, مسجلة, أشوريا, مشاهدة, أصلية, مُترجم, مكتبة, أكشن, مع, معي, مغلق, مغامرات, أفلام, مقطع, نداء, نسخ, نسخة, إلى, هاشمى, هدا, و, ومانسى الكوميدى cocktail.2012 لسيف على خان, وميثون, ومشاهدة, والله, والأثارة, والمُغامرة, والمعامرات, والأعضاء, والمغامرات, والإثارة, والجريمة, والحصرية, والخيال, وامريش, وانيل, واثارة, وادهم, وبجودة, وتورنت, وتابو, ويرجى, ودارا, ورابط, وزينات, وسوناكشى, وسونكشى, وسريديفى, وشاهيد, وشاهدة, وطلب, وكاترينا, وكاجول, وكارينا, وعمل, وغموض, baadshah, baahar, baahubali, baaraat, baazi, baba, babu, back, bajrangi, bakshy, bang, bang bang 2014, barood, bawarchi, beginning, bengal, bengali, bewakoofiyaan, bezubaan, bhag, bhaijaan2015, bhoot, biwi, bluray, bobby, bollywood, boss, brahmachari1968dvdripxvidmp3subsmenbyjuley, brahmachari1968dvdripxvidmp3subsmenbyjuleyano, brothers, byejuleyano, byjuleyano, byomkesh, chabbis2013, chak, channelsac3esub, channelsesubbyjuleyano, chaps, chemmeen, chennai, china, chor, cocktail2012, commando1988, الملكية, الألغاز, المميز, المواضيع, المتألق, المتميزة, المتاحة, المترجمين, المثير, المجموعة, المحترمين, الأخ, المساعدة, الأسطورة, المُنتظر, المكاتب, الأكشن, المغلقة, النادر, النجم, الهندي, الهندية, الهارد, الانجليزية, الاخوه, الاخوة, الاكشن, الاعزاء, الاعضاء, الافلام, التواصل, التحميل, الترجمات, الترجمة, الج, الجميل, الجودة, الجديد, الجريمة, الحياة, الخليجية, الخيالى, الديسك, الرومانس, الرومانسى, الرومانسي, الروابط, الرائع, السينما, السياسي, الكوميدى, الكوميدي, الكوميديا, الكاملة, الكرام, العلمى, العافية, العربية, الغالي, الف, الفيل, الفيلم, امان, اذنكم, ابو, ابراهام, ابراهيم, اجاى, احدث, اخوكم, ارجون, اصلاح, اصلية, اكشن, اغلاق, افلام, daag, dabangg, dacait1987, dahleez, daku, darbyjuleyano, dday2013, ddr, de, deeka, deewana, desh, detective, dharam, dharm, dhoom, dil, dill, dilwale, don, drishyam, dudeluciferbyjuleyano, dulha, duplicate1998, dushmani, dvd, dvdr, dvdrip, dvdrip720px264aacarabicenglish, dvdripx264, dvdripx264aac, dvdripx264aac51esubsdusbyjuleyano, dvdripx264aacesubschaptersbyjuleyano, dvdripx264ac3engsubschaptersbyjuleyano, dvdripx264ac3esub51byjuleyano, dvdripx264ac3esubs, dvdripx264ac3un51, dvdripx264acesubschaptersbyjuleyano, dvdripxvid6, dvdripxvidac3arabicesubsbye, dvdripxvidac3arabicesubstuhinbyjuleyano, dvdripxvidac3englishgermansubsddr, dvdripxvidac3ensubbyjuleyano, dvdripxvidmp3esub, dvdripxvidmp3hardesubbyjuleyano, dvdripxxvidac36, dvdscr, eena, effects, ek, ekthidaayan2013, entertainment, esub, esubbyjuleyan, esubbyjuleyano, esubs, esubsby, esubsbyjuleyano, esubschapters, exdt, exdxmr, express, بهى, بورتي, بورى, باللهجة, باللغة, بالموقع, بالعربي, باقة, بجودة, بحجم, بخصوص, برينكا, بسبب, بعض, تاريخى, تجميل, تيليوغو, تحميل, تعبت, تعديل, farz, fhd, film, film hindi, gabr, gali, ganga, gangster, gaya, ghar, ghatak, ghayal, ghulami, gola, goliyon, gunday, haathi, hai, happy, haqeeqat, hawaldar, hd, hdrip, heere, henna, hero, hero2013, hindi, hindiwebripx264ac3esubbyjuleyano, ho, hon3yby, hon3ybyjuleyano, hon3yhdbyejuleyano, hum, ii, impossible, india, inkaar2013, insan, international, izzatdaar, جميع, جول, جوليانو, جولياتو, جاكي, جيجا, جد, حذفت, حتى, حتى أترك الحياة, يجودة, حصريا, حصريــــــا, يعطيك, حقوق, خان, خانandابشيك, خانandكارينا, دارمندرا, ديول, ديفجان, jaag, jaan, jaan2012, jab, jab tak hai jaan2012, jackson, jagir, jai, jamai, janta, jasoos, jayegi, jessica, jodhaa, juleyano, jung, kaal, kachche, kalpurush, kanon, kanoon, kanoon1993, kanyadaan, kasam, kayda, ke, khan, khiladi, khoobsurat, khote, khudgarz, ki, kick, kill, killed, kranti, krrish3, kurukshetra, leela, leyano, love, maafia, mahal, mahatma, maidanejung, maili, main, majboor, mbc, mbg, meena, meranaamjoker, mere, mhd, mickey, mil, mkv, mohra, mp3, mp3english, mr, mrs, mukti, muqabla, murder, muskaan, nache, nagin, namaste, nikhla, ntsc, رومانسى, روائع, روخان, روشان, رامبال, راح, ريشى, رعب, onebytwo2014, سلمان, سنة, سونى, سانجيف, سارتاح, سينها, سيتم, سيرفرات, سيف, شوبرا, شاه, شاه روخان و الأسطورة, شاهيد, شاروخ, شاروخان, شاروف, شاكرا, شكر, شكربورتى, شكربورتي, صور, صديقى, طلب, ط§ظ„ط§ط®ظˆظ‡, ط§ظ„ط§ظپظ„ط§ظ…, ط§ظ„ظپظٹظ„ظ…, ط¬ظ…ظٹط¹, طµظˆط±, ط·ظ„ط¨, pagal, paheli, palay, parwane1993, phantombyjuleyano, phata, pk, poem, poster, pratigyabadh, premee, pum, pyaar, qahar, qayamt, ra, raahen, raaj, raasleela, raasta, raat, raavan, race, rajkumar, ram, ramayya, ramleela, rang, rangoon, raone, ravan, rdybyjuleyano, returns, returns2014, ripaacultravideocdbyjuleyano, ripx264ac3arabicesubbyjuleyano, rmvb, romance, rounder, rum, saathi, saheb, salaakhen, salaam, sangam, sangamcddvdripxvidmp3arabicesubsbyju, sangamcddvdripxvidmp3arabicesubsbyjuleyano, sangeet, sankat, sardaar2012, shaadi, side, sikkay, singham, sipahi, soldier, son, souten, special, story, student, subramanyam, subsbyjuleyano, كومار, كوميدى, كابور, كتير, كيف, t a g s, ta, taal, taj, tak, talaash2012, tdbbbyjuleyano, teamtellybyjuleyano, teri, tevar, tha, tiger, tilak, tmb, tmbbyjuleyano, town, true, tu, tum, tv, tvrip, untouched, utha, ظ…ظ‚ط·ط¹, ظ…ظ†, ظ‡ط¯ط§, على, عمر, عمران, عن, عالية, عامر, عائلى, عربي, غموض, غ©غ‍غ©, v2, vastavaiya, vcd, veer, veerta, vidhaata, villain, vinod, virus2013, vishnudevaa, vivah, webdlx264ac3, webrip, webripmp3byjuleyano, webx264ac3esubsbyjuleyano, x1ac3byjuleyano, x1und, x264, x264aac, x264aac51, x264aac51arabicesubschaptersbyjuleyano, x264aacarabicesubschapters, x264aacengsubbyjuleyano, x264aacesubbyjuleyano, x264aachardesubsbyjuleyano, x264ac36arabic, x264ac3arabic, x264ac3arabicesubbyjuleyano, x264ac3arabicesubs51byjuleyano, x264ac3arabicesubsbyjuleyan, x264ac3byjuleyano, x264ac3chapters, x264ac3engsub51chaptersbyjuleyano, x264ac3engsubchapters, x264ac3engsubsbyjuleyano, x264ac3esubbyjuleyano, x264ac3esubs, x264ac3esubschaptersbyjuleyano, x264ac3hardesubbyjuleyano, x264mp3arabicesubs, xmrbyjuleyano, xvid, xvidacarabicesubs, yaadon, yari, year, yevade, فيلم, فيلم هندى نادر, فقط, zabardast, zamana, zameen, zanjeer2013, ziddi1997


الذين يشاهدون محتوى الموضوع الآن : 2 ( الأعضاء 0 والزوار 2)
 
أدوات الموضوع
انواع عرض الموضوع

تعليمات المشاركة
لا تستطيع إضافة مواضيع جديدة
لا تستطيع الرد على المواضيع
لا تستطيع إرفاق ملفات
لا تستطيع تعديل مشاركاتك

BB code is متاحة
كود [IMG] متاحة
كود HTML معطلة

الانتقال السريع


الساعة الآن 08:34 PM


Powered by vBulletin® Copyright ©2010 - 2022 Jelsoft Enterprises Ltd.
جميع ما ينشر من مواضيع و ردود تعبر عن رآي كاتبها فقط