العودة   :: EgyStars :: > المنتدي الفني > أفلام هندي > قسم مكتبات ابطال الافلام الهندية

موضوع مغلق
 
أدوات الموضوع انواع عرض الموضوع
 
 رقم المشاركة : ( 71 )
emy
عضو جديد
رقم العضوية : 4898
تاريخ التسجيل : Jun 2011
مكان الإقامة :
عدد المشاركات : 1
عدد النقاط : 1
قوة التقييم : emy is an unknown quantity at this point
جهات الاتصال :

emy غير متواجد حالياً

   

افتراضي Aan Baan (1972) DvDrip x264.AC3.E.Sub.by.juleyano.

كُتب : [ 30-06-2011 ]


Aan Baan (1972) DvDrip x264.AC3.E.Sub.by.juleyano.



Stars: Rajendra Kumar, Rakhee Gulzar, Kumkum |
Format : Matroska
Format version : Version 2
File size : 1.45 GiB
Duration : 2 h 17 min
Overall bit rate : 1 508 kb/s
Encoded date : UTC 2021-05-13 2341
Video
ID : 1
Format : AVC
Format/Info : Advanced Video Codec
Format profile : High@L3
Format settings : CABAC / 4 Ref Frames
Format settings, CABAC : Yes
Format settings, Reference frames : 4 frames
Codec ID : V_MPEG4/ISO/AVC
Duration : 2 h 17 min
Bit rate : 1 122 kb/s
Width : 720 pixels
Height : 408 pixels
Display aspect ratio : 16:9
Frame rate mode : Constant
Frame rate : 25.000 FPS
Color space : YUV
Audio
ID : 2
Format : AC-3
Format/Info : Audio Coding 3
Commercial name : Dolby Digital
Codec ID : A_AC3
Duration : 2 h 17 min
Bit rate mode : Constant
Bit rate : 384 kb/s
Channel(s) : 2 channels
Channel layout : L R
Sampling rate : 48.0 kHz
Frame rate : 31.250 FPS (1536 SPF)
Compression mode : Lossy
Text
ID : 3
Format : UTF-8
Codec ID : S_TEXT/UTF8
Codec ID/Info : UTF-8 Plain Text
Duration : 2 h 13 min
Bit rate : 58 b/s
Count of elements : 1666
Stream size : 57.4 KiB (0%)
Title : juleyano movies
Language : English
Default : Yes
Forced : No











1.45 GB




التعديل الأخير تم بواسطة juleyano ; 30-12-2021 الساعة 01:09 PM

 
 رقم المشاركة : ( 72 )
البشوشة
عضو جديد
رقم العضوية : 3275
تاريخ التسجيل : May 2011
مكان الإقامة :
عدد المشاركات : 2
عدد النقاط : 1
قوة التقييم : البشوشة is an unknown quantity at this point
جهات الاتصال :

البشوشة غير متواجد حالياً

   

افتراضي

كُتب : [ 01-07-2011 ]


نايس يسلموووو

سلمت يداك

تحياتي........


 
 رقم المشاركة : ( 73 )
pharmaeng
عضو
رقم العضوية : 583
تاريخ التسجيل : Jan 2011
مكان الإقامة :
عدد المشاركات : 45
عدد النقاط : 10
قوة التقييم : pharmaeng is on a distinguished road
جهات الاتصال :

pharmaeng غير متواجد حالياً

   

افتراضي

كُتب : [ 05-07-2011 ]


Ittefaq 1969 Hindi 720p WEB-DL.AAC LC.ESub.DesireHub.by juleyano



Stars: Rajesh Khanna, Nanda, Sujit Kumar |
Format : Matroska
Format version : Version 4
File size : 1 000 MiB
Duration : 1 h 45 min
Overall bit rate : 1 330 kb/s
Video
ID : 1
Format : AVC
Format/Info : Advanced Video Codec
Format profile : High@L3.1
Format settings : CABAC / 5 Ref Frames
Format settings, CABAC : Yes
Format settings, Reference frames : 5 frames
Codec ID : V_MPEG4/ISO/AVC
Duration : 1 h 45 min
Bit rate : 1 200 kb/s
Width : 1 280 pixels
Height : 720 pixels
Display aspect ratio : 16:9
Frame rate mode : Constant
Frame rate : 25.000 FPS
Color space : YUV
Audio
ID : 2
Format : AAC LC
Format/Info : Advanced Audio Codec Low Complexity
Codec ID : A_AAC-2
Duration : 1 h 45 min
Bit rate : 128 kb/s
Channel(s) : 2 channels
Channel layout : L R
Sampling rate : 48.0 kHz
Frame rate : 46.875 FPS (1024 SPF)
Compression mode : Lossy
Text
ID : 3
Format : UTF-8
Codec ID : S_TEXT/UTF8
Codec ID/Info : UTF-8 Plain Text
Duration : 1 h 37 min
Bit rate : 66 b/s
Count of elements : 1351
Stream size : 47.6 KiB (0%)
Title : DesireHub.Net
Default : Yes
Forced : No









0.98 GB

OR




التعديل الأخير تم بواسطة juleyano ; 06-12-2021 الساعة 09:08 PM

 
 رقم المشاركة : ( 74 )
الطامبو
عضو
رقم العضوية : 5039
تاريخ التسجيل : Jul 2011
مكان الإقامة :
عدد المشاركات : 40
عدد النقاط : 1
قوة التقييم : الطامبو is an unknown quantity at this point
جهات الاتصال :

الطامبو غير متواجد حالياً

   

افتراضي

كُتب : [ 05-07-2011 ]


تسلم اللأيادي على هذه المشاركة الرااااااااائعة
يعطيك العافيه
مشكوووووووووور
مشكوووووووووووووووور
مشكوووووووووووووووووووووور


 
 رقم المشاركة : ( 75 )
الطامبو
عضو
رقم العضوية : 5039
تاريخ التسجيل : Jul 2011
مكان الإقامة :
عدد المشاركات : 40
عدد النقاط : 1
قوة التقييم : الطامبو is an unknown quantity at this point
جهات الاتصال :

الطامبو غير متواجد حالياً

   

افتراضي

كُتب : [ 06-07-2011 ]


Raja (1995) NTSC.DVDRipx264.AC3.ESub 5.1 {Team ExD} By Juleyano



Stars: Sanjay Kapoor, Madhuri Dixit, Mukesh Khanna |
Format : Matroska
Format version : Version 2
File size : 1.47 GiB
Duration : 2h 44mn
Overall bit rate : 1 274 Kbps
Video
ID : 1
Format : AVC
Format/Info : Advanced Video Codec
Format profile : High@L3.1
Format settings, CABAC : Yes
Format settings, ReFrames : 9 frames
Codec ID : V_MPEG4/ISO/AVC
Duration : 2h 44mn
Bit rate : 1 049 Kbps
Width : 702 pixels
Height : 326 pixels
Display aspect ratio : 1.913
Original display aspect ratio : 1.914
Frame rate mode : Constant
Frame rate : 23.976 fps
Audio
ID : 2
Format : AC-3
Format/Info : Audio Coding 3
Mode extension : CM (complete main)
Format settings, Endianness : Big
Codec ID : A_AC3
Duration : 2h 44mn
Bit rate mode : Constant
Bit rate : 224 Kbps
Channel(s) : 6 channels
Channel positions : Front: L C R, Side: L R, LFE
Sampling rate : 48.0 KHz
Compression mode : Lossy







1.46 GB




التعديل الأخير تم بواسطة juleyano ; 06-12-2021 الساعة 09:08 PM

 
 رقم المشاركة : ( 76 )
mohamedelbedewy
عضو
رقم العضوية : 4475
تاريخ التسجيل : Jun 2011
مكان الإقامة :
عدد المشاركات : 72
عدد النقاط : 1
قوة التقييم : mohamedelbedewy is an unknown quantity at this point
جهات الاتصال :

mohamedelbedewy غير متواجد حالياً

   

افتراضي

كُتب : [ 08-07-2011 ]


thank you


 
 رقم المشاركة : ( 77 )
mohamedelbedewy
عضو
رقم العضوية : 4475
تاريخ التسجيل : Jun 2011
مكان الإقامة :
عدد المشاركات : 72
عدد النقاط : 1
قوة التقييم : mohamedelbedewy is an unknown quantity at this point
جهات الاتصال :

mohamedelbedewy غير متواجد حالياً

   

افتراضي

كُتب : [ 08-07-2011 ]


Farishtay (1991) DvDRip x264.AC3.Arabic. ESub.5.1.BY.juleyano



Stars: Dharmendra, Vinod Khanna, Sridevi,Rajinikanth |
Format : Matroska
Format version : Version 2
File size : 1.76 GiB
Duration : 3 h 16 min
Overall bit rate : 1 281 kb/s
Encoded date : UTC 2020-10-22 1419
Video
ID : 1
Format : AVC
Format/Info : Advanced Video Codec
Format profile : High@L2.1
Format settings : CABAC / 4 Ref Frames
Format settings, CABAC : Yes
Format settings, Reference frames : 4 frames
Codec ID : V_MPEG4/ISO/AVC
Duration : 3 h 16 min
Bit rate : 1 085 kb/s
Width : 672 pixels
Height : 288 pixels
Display aspect ratio : 2.35:1
Frame rate mode : Constant
Frame rate : 25.000 FPS
Color space : YUV
Audio
ID : 2
Format : AC-3
Format/Info : Audio Coding 3
Commercial name : Dolby Digital
Codec ID : A_AC3
Duration : 3 h 16 min
Bit rate mode : Constant
Bit rate : 192 kb/s
Channel(s) : 6 channels
Channel layout : L R C LFE Ls Rs
Sampling rate : 48.0 kHz
Frame rate : 31.250 FPS (1536 SPF)
Compression mode : Lossy









1.76 GB

الترجمة العربية الاحترافية بالرابط التالي




التعديل الأخير تم بواسطة juleyano ; 06-12-2021 الساعة 09:09 PM

 
 رقم المشاركة : ( 78 )
mariooo
عضو
رقم العضوية : 1408
تاريخ التسجيل : Mar 2011
مكان الإقامة :
عدد المشاركات : 73
عدد النقاط : 10
قوة التقييم : mariooo is on a distinguished road
جهات الاتصال :

mariooo غير متواجد حالياً

   

افتراضي

كُتب : [ 14-07-2011 ]


شكرررررررررررررررررررررررررررررررررررررررررررررررر


 
 رقم المشاركة : ( 79 )
omareltawansy
عضو جديد
رقم العضوية : 5386
تاريخ التسجيل : Jul 2011
مكان الإقامة :
عدد المشاركات : 1
عدد النقاط : 1
قوة التقييم : omareltawansy is an unknown quantity at this point
جهات الاتصال :

omareltawansy غير متواجد حالياً

   

افتراضي

كُتب : [ 16-07-2011 ]


Farz Ki Jung (1989) DvDRipx264.AC3.5.1.E.Subs.BY.juleyano



Stars: Shashi Kapoor, Govinda, Neelam Kothari |
Format : Matroska
Format version : Version 2
File size : 1.27 GiB
Duration : 2 h 19 min
Overall bit rate : 1 304 kb/s
Encoded date : UTC 2020-09-06 1833
Video
ID : 1
Format : AVC
Format/Info : Advanced Video Codec
Format profile : High@L3
Format settings : CABAC / 4 Ref Frames
Format settings, CABAC : Yes
Format settings, RefFrames : 4 frames
Codec ID : V_MPEG4/ISO/AVC
Duration : 2 h 19 min
Bit rate : 1 110 kb/s
Width : 720 pixels
Height : 480 pixels
Display aspect ratio : 3:2
Frame rate mode : Constant
Frame rate : 23.976 (24000/1001) FPS
Color space : YUV
Audio
ID : 2
Format : AC-3
Format/Info : Audio Coding 3
Commercial name : Dolby Digital
Codec ID : A_AC3
Duration : 2 h 19 min
Bit rate mode : Constant
Bit rate : 192 kb/s
Channel(s) : 6 channels
Channel layout : L R C LFE Ls Rs
Sampling rate : 48.0 kHz
Frame rate : 31.250 FPS (1536 SPF)
Bit depth : 16 bits
Compression mode : Lossy
Text
ID : 3
Format : UTF-8
Codec ID : S_TEXT/UTF8
Codec ID/Info : UTF-8 Plain Text
Duration : 2 h 15 min
Bit rate : 41 b/s
Count of elements : 926
Stream size : 41.0 KiB (0%)
Title : juleyano movies
Language : English
Default : Yes
Forced : No










1.27 GB

OR




التعديل الأخير تم بواسطة juleyano ; 06-12-2021 الساعة 09:10 PM

 
 رقم المشاركة : ( 80 )
fahd141
عضو جديد
رقم العضوية : 2602
تاريخ التسجيل : Apr 2011
مكان الإقامة :
عدد المشاركات : 6
عدد النقاط : 1
قوة التقييم : fahd141 is an unknown quantity at this point
جهات الاتصال :

fahd141 غير متواجد حالياً

   

افتراضي

كُتب : [ 21-07-2011 ]


شكرا لك

جاري التحميل


موضوع مغلق

مواقع النشر (المفضلة)

الكلمات الدلالية (Tags)
۩۞۩, 1080p, 15, 1951, 1952, 1962, 1963, 1964, 1967, 1968, 1970, 1971, 1972, 1973, 1974, 1975, 1976, 1977, 1979, 1980, 1981, 1981dvdrip, 1982, 1983, 1984, 1985, 1985dvdrip, 1986, 1987, 1988webrip, 1989, 1990, 1991, 1992, 1993, 1994, 1995, 1996, 1997, 1998, 1999, 1cd, 1cddvdrip, 1cddvdripx264aacesubs, 1cddvdripxvidaacarabicesubmenbyjuleyano, 2, 2000, 2001, 2003, 2004, 2005, 2006, 2007, 2008, 2010, 2011, 2012, 2013, 2014, 2015, 2016, 2017, 2cd, 3, 40, 480p, 51, 51arabicesubsdusbyjuleyano, 51chapters, 51engsubhon3ybyjuleyano, 51esubs, 51esubshon3ybyjuleyano, 702, 720, 720p, 720pbluray, 720pbrripx264, 720pbrripx264aac51arabicesubhon3ybyjuleya, 720pbrripx264aac51arabicesubhon3ybyjuleyano, 720pdvdrip, aac, aac51arabicesubs, aacarabicesubbyjuleyano, aacarabicesubs, aacesubshon3ybyjuleyano, aadmi, aakhri, aamir, aan, aashiq, ac3, ac3alicbyjuleyano, ac3arabicesubbyjuleyan, ac3arabicesubsby, ac3arabicsub, ac3byjuleyano, ac3ehardsubby, ac3esubbyjuleyano, ac3esubchapters, ac3esubs, ac3esubsalicetdbbbyjuleyano, ac3hardesubsby, acarabicesubs, acesubchapters, acesubsonic, action, adhikari, agent, agneepath2012, akbar, akele, ali, alice, alicetdbbbyjuleyano, alictdbbbyjuleyano, amaanat, amr, andar, angrakshak, anjaan, ano, anuraag, apna, arabic, arabicesub, arabicesubs, arb, arth, ashanti, aur, avi, awara, للنجم, للاخوة, للكبار, للعربية, للفيلم, لميثون, لأكشاى, لأكشى, لأعمال, لانني, لاجاى, لايجاد, لاخي, لاكشى, لتحديث, لجون, لدارمندرا, لدي, لريتك, لسلمان, لسونى, لسيف, لشاهيد, لشاروخ, لشاروخان, لكافة, لعامر, لغاية, لفتح, لفترة, لفيلم, من, أنيل, مندرا, أو, موضوع, مباشر, مترجم, مترجمة, أترك, أجاى, ميت, ميثون, ميجا, مدبلج, أرجو, أرجون, مساحة, مسجلة, أشوريا, مشاهدة, أصلية, مُترجم, مكتبة, أكشن, مع, معي, مغلق, مغامرات, أفلام, مقطع, نداء, نسخ, نسخة, إلى, هاشمى, هدا, و, ومانسى الكوميدى cocktail.2012 لسيف على خان, وميثون, ومشاهدة, والله, والأثارة, والمُغامرة, والمعامرات, والأعضاء, والمغامرات, والإثارة, والجريمة, والحصرية, والخيال, وامريش, وانيل, واثارة, وادهم, وبجودة, وتورنت, وتابو, ويرجى, ودارا, ورابط, وزينات, وسوناكشى, وسونكشى, وسريديفى, وشاهيد, وشاهدة, وطلب, وكاترينا, وكاجول, وكارينا, وعمل, وغموض, baadshah, baahar, baahubali, baaraat, baazi, baba, babu, back, bajrangi, bakshy, bang, bang bang 2014, barood, bawarchi, beginning, bengal, bengali, bewakoofiyaan, bezubaan, bhag, bhaijaan2015, bhoot, biwi, bluray, bobby, bollywood, boss, brahmachari1968dvdripxvidmp3subsmenbyjuley, brahmachari1968dvdripxvidmp3subsmenbyjuleyano, brothers, byejuleyano, byjuleyano, byomkesh, chabbis2013, chak, channelsac3esub, channelsesubbyjuleyano, chaps, chemmeen, chennai, china, chor, cocktail2012, commando1988, الملكية, الألغاز, المميز, المواضيع, المتألق, المتميزة, المتاحة, المترجمين, المثير, المجموعة, المحترمين, الأخ, المساعدة, الأسطورة, المُنتظر, المكاتب, الأكشن, المغلقة, النادر, النجم, الهندي, الهندية, الهارد, الانجليزية, الاخوه, الاخوة, الاكشن, الاعزاء, الاعضاء, الافلام, التواصل, التحميل, الترجمات, الترجمة, الج, الجميل, الجودة, الجديد, الجريمة, الحياة, الخليجية, الخيالى, الديسك, الرومانس, الرومانسى, الرومانسي, الروابط, الرائع, السينما, السياسي, الكوميدى, الكوميدي, الكوميديا, الكاملة, الكرام, العلمى, العافية, العربية, الغالي, الف, الفيل, الفيلم, امان, اذنكم, ابو, ابراهام, ابراهيم, اجاى, احدث, اخوكم, ارجون, اصلاح, اصلية, اكشن, اغلاق, افلام, daag, dabangg, dacait1987, dahleez, daku, darbyjuleyano, dday2013, ddr, de, deeka, deewana, desh, detective, dharam, dharm, dhoom, dil, dill, dilwale, don, drishyam, dudeluciferbyjuleyano, dulha, duplicate1998, dushmani, dvd, dvdr, dvdrip, dvdrip720px264aacarabicenglish, dvdripx264, dvdripx264aac, dvdripx264aac51esubsdusbyjuleyano, dvdripx264aacesubschaptersbyjuleyano, dvdripx264ac3engsubschaptersbyjuleyano, dvdripx264ac3esub51byjuleyano, dvdripx264ac3esubs, dvdripx264ac3un51, dvdripx264acesubschaptersbyjuleyano, dvdripxvid6, dvdripxvidac3arabicesubsbye, dvdripxvidac3arabicesubstuhinbyjuleyano, dvdripxvidac3englishgermansubsddr, dvdripxvidac3ensubbyjuleyano, dvdripxvidmp3esub, dvdripxvidmp3hardesubbyjuleyano, dvdripxxvidac36, dvdscr, eena, effects, ek, ekthidaayan2013, entertainment, esub, esubbyjuleyan, esubbyjuleyano, esubs, esubsby, esubsbyjuleyano, esubschapters, exdt, exdxmr, express, بهى, بورتي, بورى, باللهجة, باللغة, بالموقع, بالعربي, باقة, بجودة, بحجم, بخصوص, برينكا, بسبب, بعض, تاريخى, تجميل, تيليوغو, تحميل, تعبت, تعديل, farz, fhd, film, film hindi, gabr, gali, ganga, gangster, gaya, ghar, ghatak, ghayal, ghulami, gola, goliyon, gunday, haathi, hai, happy, haqeeqat, hawaldar, hd, hdrip, heere, henna, hero, hero2013, hindi, hindiwebripx264ac3esubbyjuleyano, ho, hon3yby, hon3ybyjuleyano, hon3yhdbyejuleyano, hum, ii, impossible, india, inkaar2013, insan, international, izzatdaar, جميع, جول, جوليانو, جولياتو, جاكي, جيجا, جد, حذفت, حتى, حتى أترك الحياة, يجودة, حصريا, حصريــــــا, يعطيك, حقوق, خان, خانandابشيك, خانandكارينا, دارمندرا, ديول, ديفجان, jaag, jaan, jaan2012, jab, jab tak hai jaan2012, jackson, jagir, jai, jamai, janta, jasoos, jayegi, jessica, jodhaa, juleyano, jung, kaal, kachche, kalpurush, kanon, kanoon, kanoon1993, kanyadaan, kasam, kayda, ke, khan, khiladi, khoobsurat, khote, khudgarz, ki, kick, kill, killed, kranti, krrish3, kurukshetra, leela, leyano, love, maafia, mahal, mahatma, maidanejung, maili, main, majboor, mbc, mbg, meena, meranaamjoker, mere, mhd, mickey, mil, mkv, mohra, mp3, mp3english, mr, mrs, mukti, muqabla, murder, muskaan, nache, nagin, namaste, nikhla, ntsc, رومانسى, روائع, روخان, روشان, رامبال, راح, ريشى, رعب, onebytwo2014, سلمان, سنة, سونى, سانجيف, سارتاح, سينها, سيتم, سيرفرات, سيف, شوبرا, شاه, شاه روخان و الأسطورة, شاهيد, شاروخ, شاروخان, شاروف, شاكرا, شكر, شكربورتى, شكربورتي, صور, صديقى, طلب, ط§ظ„ط§ط®ظˆظ‡, ط§ظ„ط§ظپظ„ط§ظ…, ط§ظ„ظپظٹظ„ظ…, ط¬ظ…ظٹط¹, طµظˆط±, ط·ظ„ط¨, pagal, paheli, palay, parwane1993, phantombyjuleyano, phata, pk, poem, poster, pratigyabadh, premee, pum, pyaar, qahar, qayamt, ra, raahen, raaj, raasleela, raasta, raat, raavan, race, rajkumar, ram, ramayya, ramleela, rang, rangoon, raone, ravan, rdybyjuleyano, returns, returns2014, ripaacultravideocdbyjuleyano, ripx264ac3arabicesubbyjuleyano, rmvb, romance, rounder, rum, saathi, saheb, salaakhen, salaam, sangam, sangamcddvdripxvidmp3arabicesubsbyju, sangamcddvdripxvidmp3arabicesubsbyjuleyano, sangeet, sankat, sardaar2012, shaadi, side, sikkay, singham, sipahi, soldier, son, souten, special, story, student, subramanyam, subsbyjuleyano, كومار, كوميدى, كابور, كتير, كيف, t a g s, ta, taal, taj, tak, talaash2012, tdbbbyjuleyano, teamtellybyjuleyano, teri, tevar, tha, tiger, tilak, tmb, tmbbyjuleyano, town, true, tu, tum, tv, tvrip, untouched, utha, ظ…ظ‚ط·ط¹, ظ…ظ†, ظ‡ط¯ط§, على, عمر, عمران, عن, عالية, عامر, عائلى, عربي, غموض, غ©غ‍غ©, v2, vastavaiya, vcd, veer, veerta, vidhaata, villain, vinod, virus2013, vishnudevaa, vivah, webdlx264ac3, webrip, webripmp3byjuleyano, webx264ac3esubsbyjuleyano, x1ac3byjuleyano, x1und, x264, x264aac, x264aac51, x264aac51arabicesubschaptersbyjuleyano, x264aacarabicesubschapters, x264aacengsubbyjuleyano, x264aacesubbyjuleyano, x264aachardesubsbyjuleyano, x264ac36arabic, x264ac3arabic, x264ac3arabicesubbyjuleyano, x264ac3arabicesubs51byjuleyano, x264ac3arabicesubsbyjuleyan, x264ac3byjuleyano, x264ac3chapters, x264ac3engsub51chaptersbyjuleyano, x264ac3engsubchapters, x264ac3engsubsbyjuleyano, x264ac3esubbyjuleyano, x264ac3esubs, x264ac3esubschaptersbyjuleyano, x264ac3hardesubbyjuleyano, x264mp3arabicesubs, xmrbyjuleyano, xvid, xvidacarabicesubs, yaadon, yari, year, yevade, فيلم, فيلم هندى نادر, فقط, zabardast, zamana, zameen, zanjeer2013, ziddi1997


الذين يشاهدون محتوى الموضوع الآن : 1 ( الأعضاء 0 والزوار 1)
 
أدوات الموضوع
انواع عرض الموضوع

تعليمات المشاركة
لا تستطيع إضافة مواضيع جديدة
لا تستطيع الرد على المواضيع
لا تستطيع إرفاق ملفات
لا تستطيع تعديل مشاركاتك

BB code is متاحة
كود [IMG] متاحة
كود HTML معطلة

الانتقال السريع


الساعة الآن 05:44 PM


Powered by vBulletin® Copyright ©2010 - 2022 Jelsoft Enterprises Ltd.
جميع ما ينشر من مواضيع و ردود تعبر عن رآي كاتبها فقط