العودة   :: EgyStars :: > المنتدي الفني > أفلام هندي > قسم مكتبات ابطال الافلام الهندية

موضوع مغلق
 
أدوات الموضوع انواع عرض الموضوع
 
 رقم المشاركة : ( 3881 )
Faidx
عضو جديد
رقم العضوية : 40347
تاريخ التسجيل : Jul 2020
مكان الإقامة :
عدد المشاركات : 2
عدد النقاط : 1
قوة التقييم : Faidx is an unknown quantity at this point
جهات الاتصال :

Faidx غير متواجد حالياً

   

افتراضي

كُتب : [ 27-07-2020 ]


we wait


 
 رقم المشاركة : ( 3882 )
الغريب أنا
عضو نشيط
رقم العضوية : 32582
تاريخ التسجيل : Jun 2015
مكان الإقامة :
عدد المشاركات : 490
عدد النقاط : 1
قوة التقييم : الغريب أنا is an unknown quantity at this point
جهات الاتصال :

الغريب أنا غير متواجد حالياً

   

Syria Gadar Ek Prem Katha.2001.Hindi.1080p.WEB.DL.AVC.AAC.E- SUBS.DUS.ICTV - ENIGMA-BY Juleyano

كُتب : [ 03-08-2020 ]


Gadar Ek Prem Katha.2001.Hindi.1080p.WEB.DL.AVC.AAC.E-
SUBS.DUS.ICTV - ENIGMA-BY Juleyano.e

الفلم له ترجمة عربية يلزمها تعديل اقل من ثانية ولاتوجد لدي النسخة المترجم عليها



Stars: Sunny Deol, Ameesha Patel, Amrish Puri |
Format : Matroska
Format version : Version 4
File size : 3.84 GiB
Duration : 2 h 56 min
Overall bit rate : 3 105 kb/s
Video
ID : 1
Format : AVC
Format/Info : Advanced Video Codec
Format profile : High@L3.1
Format settings : CABAC / 4 Ref Frames
Format settings, CABAC : Yes
Format settings, Reference frames : 4 frames
Codec ID : V_MPEG4/ISO/AVC
Duration : 2 h 56 min
Bit rate : 3 000 kb/s
Width : 1 920 pixels
Height : 1 080 pixels
Display aspect ratio : 16:9
Frame rate mode : Constant
Frame rate : 25.000 FPS
Color space : YUV
Audio
ID : 2
Format : AAC LC
Format/Info : Advanced Audio Codec Low Complexity
Codec ID : A_AAC-2
Duration : 2 h 56 min
Bit rate : 93.5 kb/s
Channel(s) : 2 channels
Channel layout : L R
Sampling rate : 48.0 kHz
Frame rate : 46.875 FPS (1024 SPF)
Compression mode : Lossy
Text
ID : 3
Format : S_TEXT/WEBVTT
Codec ID : S_TEXT/WEBVTT
Duration : 2 h 56 min
Bit rate : 44 b/s
Count of elements : 1974
Stream size : 57.4 KiB (0%)
Title : R@GN@ROK [DUS-ICTV]
Language : English
Default : Yes
Forced : No








3.84 GB

OR
Gadar Ek Prem Katha 2001 WebRip 720p Hindi AAC x264 - ESubs.mkvCinemas [Telly].BY Juleyano
1.45 GB

النسخة المترجم عليها بهذا الرابط اذا موجودة عند احد فليحملها لنا وشكرا




التعديل الأخير تم بواسطة juleyano ; 31-12-2021 الساعة 11:48 AM سبب آخر: أضافة مرفق

 
 رقم المشاركة : ( 3883 )
الغريب أنا
عضو نشيط
رقم العضوية : 32582
تاريخ التسجيل : Jun 2015
مكان الإقامة :
عدد المشاركات : 490
عدد النقاط : 1
قوة التقييم : الغريب أنا is an unknown quantity at this point
جهات الاتصال :

الغريب أنا غير متواجد حالياً

   

Syria The Beastmaster (1982) 720p.BluRay.x264.AC3.Arabic.Esubs.5.1-x0r-Chapters.BY Juleyano

كُتب : [ 03-08-2020 ]


The Beastmaster (1982) 720p.BluRay.x264.AC3.Arabic.Esubs.5.1-x0r-Chapters.BY Juleyano



O Guerreiro Sagrado
Stars
Marc Singer,Tanya Roberts,Rip Torn
Format : Matroska
Format version : Version 4
File size : 2.68 GiB
Duration : 1 h 58 min
Overall bit rate : 3 233 kb/s
Video
ID : 1
Format : AVC
Format/Info : Advanced Video Codec
Format profile : High@L4
Format settings : CABAC / 8 Ref Frames
Format settings, CABAC : Yes
Format settings, Reference frames : 8 frames
Codec ID : V_MPEG4/ISO/AVC
Duration : 1 h 58 min
Bit rate : 2 560 kb/s
Width : 1 280 pixels
Height : 720 pixels
Display aspect ratio : 16:9
Frame rate mode : Constant
Frame rate : 23.976 FPS
Color space : YUV
Audio #1
ID : 2
Format : AC-3
Format/Info : Audio Coding 3
Commercial name : Dolby Digital
Codec ID : A_AC3
Duration : 1 h 58 min
Bit rate mode : Constant
Bit rate : 448 kb/s
Channel(s) : 6 channels
Channel layout : L R C LFE Ls Rs
Sampling rate : 48.0 kHz
Frame rate : 31.250 FPS (1536 SPF)
Compression mode : Lossy
Text
ID : 4
Format : UTF-8
Codec ID : S_TEXT/UTF8
Codec ID/Info : UTF-8 Plain Text
Duration : 1 h 52 min
Bit rate : 19 b/s
Count of elements : 688
Stream size : 16.4 KiB (0%)
Language : English
Default : Yes
Forced : No
Menu
00:00:00.000 : en:Chapter 1
00:01:37.305 : en:Chapter 2










2.65 GB



التعديل الأخير تم بواسطة juleyano ; 12-02-2022 الساعة 09:38 AM

 
 رقم المشاركة : ( 3884 )
juleyano
Moderator
الصورة الرمزية juleyano
رقم العضوية : 32054
تاريخ التسجيل : Nov 2014
مكان الإقامة : Portugal
عدد المشاركات : 15,102
عدد النقاط : 1
قوة التقييم : juleyano is an unknown quantity at this point
جهات الاتصال :

juleyano متواجد حالياً

   

Syria Andaz Apna Apna 1994 WebRip 720p Hindi AAC 5.1 x264 Arabic.ESub - mkvCinemas [Telly] BY Juleyano

كُتب : [ 03-08-2020 ]


Andaz Apna Apna 1994 WebRip 720p Hindi AAC 5.1 x264 Arabic.ESub - mkvCinemas [Telly] BY Juleyano



Stars
Aamir Khan,Salman Khan,Raveena Tandon
Format : Matroska
Format version : Version 2
File size : 1.33 GiB
Duration : 2 h 33 min
Overall bit rate mode : Variable
Overall bit rate : 1 243 kb/s
Video
ID : 1
Format : AVC
Format/Info : Advanced Video Codec
Format profile : High@L4.1
Format settings : CABAC / 7 Ref Frames
Format settings, CABAC : Yes
Format settings, Reference frames : 7 frames
Muxing mode : Header stripping
Codec ID : V_MPEG4/ISO/AVC
Duration : 2 h 33 min
Bit rate mode : Variable
Nominal bit rate : 1 050 kb/s
Maximum bit rate : 62.5 Mb/s
Width : 1 280 pixels
Height : 528 pixels
Display aspect ratio : 2.40:1
Original display aspect ratio : 2.40:1
Frame rate mode : Constant
Frame rate : 25.000 FPS
Color space : YUV
Audio
ID : 2
Format : AAC LC
Format/Info : Advanced Audio Codec Low Complexity
Codec ID : A_AAC-2
Duration : 2 h 33 min
Channel(s) : 6 channels
Channel layout : C L R Ls Rs LFE
Sampling rate : 48.0 kHz
Frame rate : 46.875 FPS (1024 SPF)
Compression mode : Lossy
Text
ID : 3
Format : UTF-8
Codec ID : S_TEXT/UTF8
Codec ID/Info : UTF-8 Plain Text
Title : mkvCinemas
Language : English
Default : Yes
Forced : No










1.33 GB



توقيع : juleyano



التعديل الأخير تم بواسطة juleyano ; 31-12-2021 الساعة 07:22 PM

 
 رقم المشاركة : ( 3885 )
mustapha2020
Moderator
رقم العضوية : 19236
تاريخ التسجيل : Jun 2012
مكان الإقامة :
عدد المشاركات : 2,107
عدد النقاط : 1
قوة التقييم : mustapha2020 is an unknown quantity at this point
جهات الاتصال :

mustapha2020 غير متواجد حالياً

   

افتراضي

كُتب : [ 03-08-2020 ]


نيابة عن أخي جول نظرا لمشاغله الكثيرة في رفع الأفلام،سأقوم بإنشاء موضوع خاص يتضمن صور الفيلم مع ترجمتك إن شاء الله


 
 رقم المشاركة : ( 3886 )
saziz
عضو نشيط
رقم العضوية : 40306
تاريخ التسجيل : Jul 2020
مكان الإقامة :
عدد المشاركات : 161
عدد النقاط : 1
قوة التقييم : saziz is an unknown quantity at this point
جهات الاتصال :

saziz غير متواجد حالياً

   

افتراضي

كُتب : [ 03-08-2020 ]


رابط التحميل على سيرفر اخر
مشكور


 
 رقم المشاركة : ( 3887 )
juleyano
Moderator
الصورة الرمزية juleyano
رقم العضوية : 32054
تاريخ التسجيل : Nov 2014
مكان الإقامة : Portugal
عدد المشاركات : 15,102
عدد النقاط : 1
قوة التقييم : juleyano is an unknown quantity at this point
جهات الاتصال :

juleyano متواجد حالياً

   

Syria Izzatdaar (1990) DvDRipx264.AC3.Arabic.ESubs.5.1. By.juleyano

كُتب : [ 06-08-2020 ]


Izzatdaar (1990) DvDRipx264.AC3.Arabic.ESubs.5.1. By.juleyano



Stars: Madhuri Dixit, Govinda , Dilip Kumar |
Format : Matroska
Format version : Version 4
File size : 1.64 GiB
Duration : 2 h 44 min
Overall bit rate : 1 426 kb/s
Encoded date : UTC 2020-08-04 10:54:06
Writing application : HandBrake 1.3.3 2020061300
Video
ID : 1
Format : AVC
Format/Info : Advanced Video Codec
Format profile : High@L3.1
Format settings : CABAC / 4 Ref Frames
Format settings, CABAC : Yes
Format settings, RefFrames : 4 frames
Codec ID : V_MPEG4/ISO/AVC
Duration : 2 h 44 min
Nominal bit rate : 1 200 kb/s
Width : 608 pixels
Height : 464 pixels
Display aspect ratio : 4:3
Frame rate mode : Constant
Frame rate : 23.976 (24000/1001) FPS
Color space : YUV
Audio
ID : 2
Format : AAC LC
Format/Info : Advanced Audio Codec Low Complexity
Codec ID : A_AAC-2
Duration : 2 h 44 min
Channel(s) : 6 channels
Channel layout : C L R Ls Rs LFE
Sampling rate : 48.0 kHz
Frame rate : 46.875 FPS (1024 SPF)
Compression mode : Lossy









1.63 GB

الترجمة العربية الاحترافية بالرابط التالي



توقيع : juleyano



التعديل الأخير تم بواسطة juleyano ; 31-12-2021 الساعة 09:44 AM

 
 رقم المشاركة : ( 3888 )
juleyano
Moderator
الصورة الرمزية juleyano
رقم العضوية : 32054
تاريخ التسجيل : Nov 2014
مكان الإقامة : Portugal
عدد المشاركات : 15,102
عدد النقاط : 1
قوة التقييم : juleyano is an unknown quantity at this point
جهات الاتصال :

juleyano متواجد حالياً

   

افتراضي

كُتب : [ 07-08-2020 ]


Bandh Darwaza 1990 Hindi DvDRip x264 AC3 - Hon3y


توقيع : juleyano


 
 رقم المشاركة : ( 3889 )
juleyano
Moderator
الصورة الرمزية juleyano
رقم العضوية : 32054
تاريخ التسجيل : Nov 2014
مكان الإقامة : Portugal
عدد المشاركات : 15,102
عدد النقاط : 1
قوة التقييم : juleyano is an unknown quantity at this point
جهات الاتصال :

juleyano متواجد حالياً

   

Syria Muqaddar Ka Faisla (1987) DvDRip x264.AAC.Arabic.ESubs.by juleyano

كُتب : [ 08-08-2020 ]


Muqaddar Ka Faisla (1987) DvDRip x264.AAC.Arabic.ESubs.by juleyano

الف شكر للاخ عابدين لتقديمه النسخة المطابقة للترجمة مع الترجمة العربية والانكليزية



Stars: Raaj Kumar, Rakhee Gulzar, Raj Babbar
Format : MPEG-4
Format profile : Base Media
Codec ID : isom (isom/iso2/avc1/mp41)
File size : 1.06 GiB
Duration : 2 h 51 min
Video
ID : 1
Format : AVC
Format/Info : Advanced Video Codec
Format profile : High@L3.1
Format settings : CABAC / 3 Ref Frames
Format settings, CABAC : Yes
Format settings, RefFrames : 3 frames
Codec ID : avc1
Codec ID/Info : Advanced Video Coding
Duration : 2 h 51 min
Bit rate : 811 kb/s
Width : 1 280 pixels
Height : 720 pixels
Display aspect ratio : 16:9
Frame rate mode : Constant
Frame rate : 24.000 FPS
Color space : YUV
Audio
ID : 2
Format : AAC LC SBR
Commercial name : HE-AAC
Format settings : Explicit
Codec ID : mp4a-40-2
Duration : 2 h 51 min
Bit rate mode : Constant
Bit rate : 64.0 kb/s
Channel(s) : 2 channels
Channel layout : L R
Sampling rate : 48.0 kHz
Frame rate : 23.438 FPS (2048 SPF)
Compression mode : Lossy









1.05 GB

الترجمة العربية الاحترافية بالرابط التالي



توقيع : juleyano



التعديل الأخير تم بواسطة juleyano ; 31-12-2021 الساعة 09:45 AM

 
 رقم المشاركة : ( 3890 )
juleyano
Moderator
الصورة الرمزية juleyano
رقم العضوية : 32054
تاريخ التسجيل : Nov 2014
مكان الإقامة : Portugal
عدد المشاركات : 15,102
عدد النقاط : 1
قوة التقييم : juleyano is an unknown quantity at this point
جهات الاتصال :

juleyano متواجد حالياً

   

Syria Taal (1999) Hindi 720p HDRip x264.AAC.Arabic.ESubs. KIKS.by juleyano

كُتب : [ 09-08-2020 ]


Taal (1999) Hindi 720p HDRip x264.AAC.Arabic.ESubs. KIKS.by juleyano



Stars: Akshaye Khanna, Anil Kapoor, Aishwarya Rai Bachchan |
Format : Matroska
Format version : Version 4
File size : 1.55 GiB
Duration : 2 h 57 min
Overall bit rate : 1 248 kb/s
ID : 1
Format : AVC
Format/Info : Advanced Video Codec
Format profile : High@L4
Format settings : CABAC / 5 Ref Frames
Format settings, CABAC : Yes
Format settings, RefFrames : 5 frames
Codec ID : V_MPEG4/ISO/AVC
Duration : 2 h 57 min
Bit rate : 1 182 kb/s
Width : 1 280 pixels
Height : 544 pixels
Display aspect ratio : 2.35:1
Frame rate mode : Constant
Frame rate : 24.000 FPS
Color space : YUV
Audio
ID : 2
Format : AAC LC SBR
Commercial name : HE-AAC
Format settings : Explicit
Codec ID : A_AAC-2
Duration : 2 h 57 min
Bit rate : 64.0 kb/s
Channel(s) : 2 channels
Channel layout : L R
Sampling rate : 48.0 kHz
Frame rate : 23.438 FPS (2048 SPF)
Compression mode : Lossy
Text
ID : 3
Format : UTF-8
Codec ID : S_TEXT/UTF8
Codec ID/Info : UTF-8 Plain Text
Duration : 2 h 56 min
Bit rate : 52 b/s
Count of elements : 2204
Stream size : 68.1 KiB (0%)
Default : Yes
Forced : No









1.55 GiB

OR


الترجمة العربية الاحترافية بالرابط التالي



توقيع : juleyano



التعديل الأخير تم بواسطة juleyano ; 31-12-2021 الساعة 09:46 AM

موضوع مغلق

مواقع النشر (المفضلة)

الكلمات الدلالية (Tags)
۩۞۩, 1080p, 15, 1951, 1952, 1962, 1963, 1964, 1967, 1968, 1970, 1971, 1972, 1973, 1974, 1975, 1976, 1977, 1979, 1980, 1981, 1981dvdrip, 1982, 1983, 1984, 1985, 1985dvdrip, 1986, 1987, 1988webrip, 1989, 1990, 1991, 1992, 1993, 1994, 1995, 1996, 1997, 1998, 1999, 1cd, 1cddvdrip, 1cddvdripx264aacesubs, 1cddvdripxvidaacarabicesubmenbyjuleyano, 2, 2000, 2001, 2003, 2004, 2005, 2006, 2007, 2008, 2010, 2011, 2012, 2013, 2014, 2015, 2016, 2017, 2cd, 3, 40, 480p, 51, 51arabicesubsdusbyjuleyano, 51chapters, 51engsubhon3ybyjuleyano, 51esubs, 51esubshon3ybyjuleyano, 702, 720, 720p, 720pbluray, 720pbrripx264, 720pbrripx264aac51arabicesubhon3ybyjuleya, 720pbrripx264aac51arabicesubhon3ybyjuleyano, 720pdvdrip, aac, aac51arabicesubs, aacarabicesubbyjuleyano, aacarabicesubs, aacesubshon3ybyjuleyano, aadmi, aakhri, aamir, aan, aashiq, ac3, ac3alicbyjuleyano, ac3arabicesubbyjuleyan, ac3arabicesubsby, ac3arabicsub, ac3byjuleyano, ac3ehardsubby, ac3esubbyjuleyano, ac3esubchapters, ac3esubs, ac3esubsalicetdbbbyjuleyano, ac3hardesubsby, acarabicesubs, acesubchapters, acesubsonic, action, adhikari, agent, agneepath2012, akbar, akele, ali, alice, alicetdbbbyjuleyano, alictdbbbyjuleyano, amaanat, amr, andar, angrakshak, anjaan, ano, anuraag, apna, arabic, arabicesub, arabicesubs, arb, arth, ashanti, aur, avi, awara, للنجم, للاخوة, للكبار, للعربية, للفيلم, لميثون, لأكشاى, لأكشى, لأعمال, لانني, لاجاى, لايجاد, لاخي, لاكشى, لتحديث, لجون, لدارمندرا, لدي, لريتك, لسلمان, لسونى, لسيف, لشاهيد, لشاروخ, لشاروخان, لكافة, لعامر, لغاية, لفتح, لفترة, لفيلم, من, أنيل, مندرا, أو, موضوع, مباشر, مترجم, مترجمة, أترك, أجاى, ميت, ميثون, ميجا, مدبلج, أرجو, أرجون, مساحة, مسجلة, أشوريا, مشاهدة, أصلية, مُترجم, مكتبة, أكشن, مع, معي, مغلق, مغامرات, أفلام, مقطع, نداء, نسخ, نسخة, إلى, هاشمى, هدا, و, ومانسى الكوميدى cocktail.2012 لسيف على خان, وميثون, ومشاهدة, والله, والأثارة, والمُغامرة, والمعامرات, والأعضاء, والمغامرات, والإثارة, والجريمة, والحصرية, والخيال, وامريش, وانيل, واثارة, وادهم, وبجودة, وتورنت, وتابو, ويرجى, ودارا, ورابط, وزينات, وسوناكشى, وسونكشى, وسريديفى, وشاهيد, وشاهدة, وطلب, وكاترينا, وكاجول, وكارينا, وعمل, وغموض, baadshah, baahar, baahubali, baaraat, baazi, baba, babu, back, bajrangi, bakshy, bang, bang bang 2014, barood, bawarchi, beginning, bengal, bengali, bewakoofiyaan, bezubaan, bhag, bhaijaan2015, bhoot, biwi, bluray, bobby, bollywood, boss, brahmachari1968dvdripxvidmp3subsmenbyjuley, brahmachari1968dvdripxvidmp3subsmenbyjuleyano, brothers, byejuleyano, byjuleyano, byomkesh, chabbis2013, chak, channelsac3esub, channelsesubbyjuleyano, chaps, chemmeen, chennai, china, chor, cocktail2012, commando1988, الملكية, الألغاز, المميز, المواضيع, المتألق, المتميزة, المتاحة, المترجمين, المثير, المجموعة, المحترمين, الأخ, المساعدة, الأسطورة, المُنتظر, المكاتب, الأكشن, المغلقة, النادر, النجم, الهندي, الهندية, الهارد, الانجليزية, الاخوه, الاخوة, الاكشن, الاعزاء, الاعضاء, الافلام, التواصل, التحميل, الترجمات, الترجمة, الج, الجميل, الجودة, الجديد, الجريمة, الحياة, الخليجية, الخيالى, الديسك, الرومانس, الرومانسى, الرومانسي, الروابط, الرائع, السينما, السياسي, الكوميدى, الكوميدي, الكوميديا, الكاملة, الكرام, العلمى, العافية, العربية, الغالي, الف, الفيل, الفيلم, امان, اذنكم, ابو, ابراهام, ابراهيم, اجاى, احدث, اخوكم, ارجون, اصلاح, اصلية, اكشن, اغلاق, افلام, daag, dabangg, dacait1987, dahleez, daku, darbyjuleyano, dday2013, ddr, de, deeka, deewana, desh, detective, dharam, dharm, dhoom, dil, dill, dilwale, don, drishyam, dudeluciferbyjuleyano, dulha, duplicate1998, dushmani, dvd, dvdr, dvdrip, dvdrip720px264aacarabicenglish, dvdripx264, dvdripx264aac, dvdripx264aac51esubsdusbyjuleyano, dvdripx264aacesubschaptersbyjuleyano, dvdripx264ac3engsubschaptersbyjuleyano, dvdripx264ac3esub51byjuleyano, dvdripx264ac3esubs, dvdripx264ac3un51, dvdripx264acesubschaptersbyjuleyano, dvdripxvid6, dvdripxvidac3arabicesubsbye, dvdripxvidac3arabicesubstuhinbyjuleyano, dvdripxvidac3englishgermansubsddr, dvdripxvidac3ensubbyjuleyano, dvdripxvidmp3esub, dvdripxvidmp3hardesubbyjuleyano, dvdripxxvidac36, dvdscr, eena, effects, ek, ekthidaayan2013, entertainment, esub, esubbyjuleyan, esubbyjuleyano, esubs, esubsby, esubsbyjuleyano, esubschapters, exdt, exdxmr, express, بهى, بورتي, بورى, باللهجة, باللغة, بالموقع, بالعربي, باقة, بجودة, بحجم, بخصوص, برينكا, بسبب, بعض, تاريخى, تجميل, تيليوغو, تحميل, تعبت, تعديل, farz, fhd, film, film hindi, gabr, gali, ganga, gangster, gaya, ghar, ghatak, ghayal, ghulami, gola, goliyon, gunday, haathi, hai, happy, haqeeqat, hawaldar, hd, hdrip, heere, henna, hero, hero2013, hindi, hindiwebripx264ac3esubbyjuleyano, ho, hon3yby, hon3ybyjuleyano, hon3yhdbyejuleyano, hum, ii, impossible, india, inkaar2013, insan, international, izzatdaar, جميع, جول, جوليانو, جولياتو, جاكي, جيجا, جد, حذفت, حتى, حتى أترك الحياة, يجودة, حصريا, حصريــــــا, يعطيك, حقوق, خان, خانandابشيك, خانandكارينا, دارمندرا, ديول, ديفجان, jaag, jaan, jaan2012, jab, jab tak hai jaan2012, jackson, jagir, jai, jamai, janta, jasoos, jayegi, jessica, jodhaa, juleyano, jung, kaal, kachche, kalpurush, kanon, kanoon, kanoon1993, kanyadaan, kasam, kayda, ke, khan, khiladi, khoobsurat, khote, khudgarz, ki, kick, kill, killed, kranti, krrish3, kurukshetra, leela, leyano, love, maafia, mahal, mahatma, maidanejung, maili, main, majboor, mbc, mbg, meena, meranaamjoker, mere, mhd, mickey, mil, mkv, mohra, mp3, mp3english, mr, mrs, mukti, muqabla, murder, muskaan, nache, nagin, namaste, nikhla, ntsc, رومانسى, روائع, روخان, روشان, رامبال, راح, ريشى, رعب, onebytwo2014, سلمان, سنة, سونى, سانجيف, سارتاح, سينها, سيتم, سيرفرات, سيف, شوبرا, شاه, شاه روخان و الأسطورة, شاهيد, شاروخ, شاروخان, شاروف, شاكرا, شكر, شكربورتى, شكربورتي, صور, صديقى, طلب, ط§ظ„ط§ط®ظˆظ‡, ط§ظ„ط§ظپظ„ط§ظ…, ط§ظ„ظپظٹظ„ظ…, ط¬ظ…ظٹط¹, طµظˆط±, ط·ظ„ط¨, pagal, paheli, palay, parwane1993, phantombyjuleyano, phata, pk, poem, poster, pratigyabadh, premee, pum, pyaar, qahar, qayamt, ra, raahen, raaj, raasleela, raasta, raat, raavan, race, rajkumar, ram, ramayya, ramleela, rang, rangoon, raone, ravan, rdybyjuleyano, returns, returns2014, ripaacultravideocdbyjuleyano, ripx264ac3arabicesubbyjuleyano, rmvb, romance, rounder, rum, saathi, saheb, salaakhen, salaam, sangam, sangamcddvdripxvidmp3arabicesubsbyju, sangamcddvdripxvidmp3arabicesubsbyjuleyano, sangeet, sankat, sardaar2012, shaadi, side, sikkay, singham, sipahi, soldier, son, souten, special, story, student, subramanyam, subsbyjuleyano, كومار, كوميدى, كابور, كتير, كيف, t a g s, ta, taal, taj, tak, talaash2012, tdbbbyjuleyano, teamtellybyjuleyano, teri, tevar, tha, tiger, tilak, tmb, tmbbyjuleyano, town, true, tu, tum, tv, tvrip, untouched, utha, ظ…ظ‚ط·ط¹, ظ…ظ†, ظ‡ط¯ط§, على, عمر, عمران, عن, عالية, عامر, عائلى, عربي, غموض, غ©غ‍غ©, v2, vastavaiya, vcd, veer, veerta, vidhaata, villain, vinod, virus2013, vishnudevaa, vivah, webdlx264ac3, webrip, webripmp3byjuleyano, webx264ac3esubsbyjuleyano, x1ac3byjuleyano, x1und, x264, x264aac, x264aac51, x264aac51arabicesubschaptersbyjuleyano, x264aacarabicesubschapters, x264aacengsubbyjuleyano, x264aacesubbyjuleyano, x264aachardesubsbyjuleyano, x264ac36arabic, x264ac3arabic, x264ac3arabicesubbyjuleyano, x264ac3arabicesubs51byjuleyano, x264ac3arabicesubsbyjuleyan, x264ac3byjuleyano, x264ac3chapters, x264ac3engsub51chaptersbyjuleyano, x264ac3engsubchapters, x264ac3engsubsbyjuleyano, x264ac3esubbyjuleyano, x264ac3esubs, x264ac3esubschaptersbyjuleyano, x264ac3hardesubbyjuleyano, x264mp3arabicesubs, xmrbyjuleyano, xvid, xvidacarabicesubs, yaadon, yari, year, yevade, فيلم, فيلم هندى نادر, فقط, zabardast, zamana, zameen, zanjeer2013, ziddi1997


الذين يشاهدون محتوى الموضوع الآن : 1 ( الأعضاء 0 والزوار 1)
 
أدوات الموضوع
انواع عرض الموضوع

تعليمات المشاركة
لا تستطيع إضافة مواضيع جديدة
لا تستطيع الرد على المواضيع
لا تستطيع إرفاق ملفات
لا تستطيع تعديل مشاركاتك

BB code is متاحة
كود [IMG] متاحة
كود HTML معطلة

الانتقال السريع


الساعة الآن 05:10 PM


Powered by vBulletin® Copyright ©2010 - 2022 Jelsoft Enterprises Ltd.
جميع ما ينشر من مواضيع و ردود تعبر عن رآي كاتبها فقط