العودة   :: EgyStars :: > المنتدي الفني > أفلام هندي

موضوع مغلق
 
أدوات الموضوع انواع عرض الموضوع
 
 رقم المشاركة : ( 541 )
juleyano
Moderator
الصورة الرمزية juleyano
رقم العضوية : 32054
تاريخ التسجيل : Nov 2014
مكان الإقامة :
عدد المشاركات : 7,358
عدد النقاط : 1
قوة التقييم : juleyano is an unknown quantity at this point
جهات الاتصال :

juleyano متواجد حالياً

   

Syria Paap Ko Jalaa Kar Raakh Kar Doonga (1988) DvDRip x264.AC3.E.Sub.Chapters. Hon3y.By.juleyano

كُتب : [ 27-10-2017 ]


Paap Ko Jalaa Kar Raakh Kar Doonga (1988) DvDRip x264.AC3.E.Sub.Chapters. Hon3y.By.juleyano



Thanks M@X Bro for DvDRip
Stars: Dharmendra, Govinda, Anita Raj |
Format : Matroska
Format version : Version 4 / Version 2
File size : 1 022 MiB
Duration : 2 h 37 min
Overall bit rate : 909 kb/s
Movie name : Paap Ko Jalaa Kar Raakh Kar Doonga 1988 - Hon3y
Encoded date : UTC 2017-09-22 17:59:33
Video
ID : 1
Format : AVC
Format/Info : Advanced Video Codec
Format profile : High@L4.1
Format settings, CABAC : Yes
Format settings, ReFrames : 8 frames
Codec ID : V_MPEG4/ISO/AVC
Duration : 2 h 37 min
Bit rate : 811 kb/s
Width : 640 pixels
Height : 480 pixels
Display aspect ratio : 4:3
Frame rate mode : Constant
Frame rate : 23.976 (24000/1001) FPS
Color space : YUV
Audio
ID : 2
Format : AC-3
Format/Info : Audio Coding 3
Mode extension : CM (complete main)
Format settings, Endianness : Big
Codec ID : A_AC3
Duration : 2 h 37 min
Bit rate mode : Constant
Bit rate : 96.0 kb/s
Channel(s) : 2 channels
Channel positions : Front: L R
Sampling rate : 48.0 kHz
Frame rate : 31.250 FPS (1536 spf)
Bit depth : 16 bits
Compression mode : Lossy
Text
ID : 3
Format : UTF-8
Codec ID : S_TEXT/UTF8
Codec ID/Info : UTF-8 Plain Text
Duration : 2 h 31 min
Bit rate : 46 b/s
Count of elements : 1220
Stream size : 51.8 KiB (0%)
Language : English
Menu
00:00:00.000 : en:Chapter 01
00:04:59.434 : en:Chapter 02

0022.934 : en:Chapter 03








1 GB


الملفات المرفقة لايمكنك تحميل المرفقات الا بعد الرد على الموضوع
توقيع : juleyano


مكتبة جوليانو للافلام الأجنبية الكلاسيكية 1900 - 1990 نسخ عالية الجودة مع الترجمات المتاحة بالنت
http://egystars.com/vb/showthread.php?t=9446
اي رابط لا يعمل من افلامي فقط ضعه هنا من فضلك ليتم تجديده والف شكر
http://egystars.com/vb/showthread.php?t=10125

مدونتي لكافة افلامي الهندية والعربية والاجنبية بنسخ DVD عالية الجودة
http://juleyano-dodo.blogspot.pt


 
 رقم المشاركة : ( 542 )
juleyano
Moderator
الصورة الرمزية juleyano
رقم العضوية : 32054
تاريخ التسجيل : Nov 2014
مكان الإقامة :
عدد المشاركات : 7,358
عدد النقاط : 1
قوة التقييم : juleyano is an unknown quantity at this point
جهات الاتصال :

juleyano متواجد حالياً

   

Syria Kudrat (1981) Hindi.DvDRip x264.AC3.Hon3y.Eng.Sub.BY.juleyano

كُتب : [ 28-10-2017 ]


Kudrat (1981) Hindi.DvDRip x264.AC3.Hon3y.Eng.Sub.BY.juleyano



Stars: Rajesh Khanna, Vinod Khanna, Hema Malini |
Format : Matroska
Format version : Version 4 / Version 2
File size : 1.45 GiB
Duration : 2 h 49 min
Overall bit rate : 1 224 kb/s
Encoded date : UTC 2015-09-02 09:57:22
Video
ID : 1
Format : AVC
Format/Info : Advanced Video Codec
Format profile : High@L3.1
Format settings, CABAC : Yes
Format settings, ReFrames : 16 frames
Codec ID : V_MPEG4/ISO/AVC
Duration : 2 h 49 min
Bit rate : 998 kb/s
Width : 720 pixels
Height : 304 pixels
Display aspect ratio : 2.35:1
Frame rate mode : Constant
Frame rate : 23.976 (24000/1001) FPS
ColoAudio
ID : 2
Format : AC-3
Format/Info : Audio Coding 3
Mode extension : CM (complete main)
Format settings, Endianness : Big
Codec ID : A_AC3
Duration : 2 h 49 min
Bit rate mode : Constant
Bit rate : 224 kb/s
Channel(s) : 2 channels
Channel positions : Front: L R
Sampling rate : 48.0 kHz
Frame rate : 31.250 FPS (1536 spf)
Bit depth : 16 bits
Compression mode : Lossyr space : YUV








1.45 GB


الملفات المرفقة لايمكنك تحميل المرفقات الا بعد الرد على الموضوع
توقيع : juleyano


مكتبة جوليانو للافلام الأجنبية الكلاسيكية 1900 - 1990 نسخ عالية الجودة مع الترجمات المتاحة بالنت
http://egystars.com/vb/showthread.php?t=9446
اي رابط لا يعمل من افلامي فقط ضعه هنا من فضلك ليتم تجديده والف شكر
http://egystars.com/vb/showthread.php?t=10125

مدونتي لكافة افلامي الهندية والعربية والاجنبية بنسخ DVD عالية الجودة
http://juleyano-dodo.blogspot.pt


 
 رقم المشاركة : ( 543 )
juleyano
Moderator
الصورة الرمزية juleyano
رقم العضوية : 32054
تاريخ التسجيل : Nov 2014
مكان الإقامة :
عدد المشاركات : 7,358
عدد النقاط : 1
قوة التقييم : juleyano is an unknown quantity at this point
جهات الاتصال :

juleyano متواجد حالياً

   

Syria Shaque (1976) Hindi 720p.HDRipx264.AAC.E.Sub.BY.juleyano

كُتب : [ 21-12-2017 ]


Shaque (1976) Hindi 720p.HDRipx264.AAC.E.Sub.BY.juleyano



Stars: Vinod Khanna, Shabana Azmi, Utpal Dutt |
Format : MPEG-4
Format profile : Base Media / Version 2
Codec ID : mp42 (isom/mp42)
File size : 1.24 GiB
Duration : 2 h 6 min
Overall bit rate mode : Variable
Overall bit rate : 1 406 kb/s
Encoded date : UTC 2017-12-02 01:44:27
Video
ID : 1
Format : AVC
Format/Info : Advanced Video Codec
Format profile : Main@L3.1
Format settings : CABAC / 3 Ref Frames
Format settings, CABAC : Yes
Format settings, RefFrames : 3 frames
Codec ID : avc1
Codec ID/Info : Advanced Video Coding
Duration : 2 h 6 min
Bit rate : 1 277 kb/s
Width : 1 280 pixels
Height : 720 pixels
Display aspect ratio : 16:9
Frame rate mode : Constant
Frame rate : 25.000 FPS
Color space : YUV
Audio
ID : 2
Format : AAC
Format/Info : Advanced Audio Codec
Format profile : LC
Codec ID : mp4a-40-2
Duration : 2 h 6 min
Source duration : 2 h 6 min
Bit rate mode : Variable
Bit rate : 126 kb/s
Channel(s) : 2 channels
Channel positions : Front: L R
Sampling rate : 44.1 kHz
Frame rate : 43.066 FPS (1024 SPF)
Compression mode : Lossy








1.23 GB



الملفات المرفقة لايمكنك تحميل المرفقات الا بعد الرد على الموضوع
توقيع : juleyano


مكتبة جوليانو للافلام الأجنبية الكلاسيكية 1900 - 1990 نسخ عالية الجودة مع الترجمات المتاحة بالنت
http://egystars.com/vb/showthread.php?t=9446
اي رابط لا يعمل من افلامي فقط ضعه هنا من فضلك ليتم تجديده والف شكر
http://egystars.com/vb/showthread.php?t=10125

مدونتي لكافة افلامي الهندية والعربية والاجنبية بنسخ DVD عالية الجودة
http://juleyano-dodo.blogspot.pt


 
 رقم المشاركة : ( 544 )
juleyano
Moderator
الصورة الرمزية juleyano
رقم العضوية : 32054
تاريخ التسجيل : Nov 2014
مكان الإقامة :
عدد المشاركات : 7,358
عدد النقاط : 1
قوة التقييم : juleyano is an unknown quantity at this point
جهات الاتصال :

juleyano متواجد حالياً

   

Syria MOM (2017) 720p BluRray x264.Arabic.ESubs. DD 5.1. LOKI.M2Tv.ExCluSivE.by.juleyano

كُتب : [ 23-12-2017 ]


MOM (2017) 720p BluRray x264.Arabic.ESubs. DD 5.1. LOKI.M2Tv.ExCluSivE.by.juleyano



Stars: Sridevi, Akshaye Khanna, Adnan Siddiqui |
Format : Matroska
Format version : Version 4 / Version 2
File size : 1.28 GiB
Duration : 2 h 26 min
Overall bit rate : 1 251 kb/s
Video
ID : 1
Format : AVC
Format/Info : Advanced Video Codec
Format profile : High@L4.1
Format settings : CABAC / 4 Ref Frames
Format settings, CABAC : Yes
Format settings, RefFrames : 4 frames
Codec ID : V_MPEG4/ISO/AVC
Duration : 2 h 26 min
Bit rate : 1 005 kb/s
Width : 1 280 pixels
Height : 536 pixels
Display aspect ratio : 2.40:1
Frame rate mode : Constant
Frame rate : 24.000 FPS
Color space : YUV
Audio
ID : 2
Format : AC-3
Format/Info : Audio Coding 3
Codec ID : A_AC3
Duration : 2 h 26 min
Bit rate mode : Constant
Bit rate : 224 kb/s
Channel(s) : 6 channels
Channel positions : Front: L C R, Side: L R, LFE
Sampling rate : 48.0 kHz
Frame rate : 31.250 FPS (1536 SPF)
Bit depth : 16 bits
Compression mode : Lossy
Text
ID : 3
Format : PGS
Codec ID : S_HDMV/PGS
Codec ID/Info : Picture based subtitle format used on BDs/HD-DVDs
Duration : 2 h 16 min
Bit rate : 22.4 kb/s
Count of elements : 2684
Stream size : 21.8 MiB (2%)
Title : LOKI
Language : English
Menu
00:00:00.000 : en:00:00:00.000
00:02:49.000 : en:00:02:49.000









1.27 GB

الترجمة العربية الاحترافية بالرابط التالي



توقيع : juleyano


مكتبة جوليانو للافلام الأجنبية الكلاسيكية 1900 - 1990 نسخ عالية الجودة مع الترجمات المتاحة بالنت
http://egystars.com/vb/showthread.php?t=9446
اي رابط لا يعمل من افلامي فقط ضعه هنا من فضلك ليتم تجديده والف شكر
http://egystars.com/vb/showthread.php?t=10125

مدونتي لكافة افلامي الهندية والعربية والاجنبية بنسخ DVD عالية الجودة
http://juleyano-dodo.blogspot.pt


 
 رقم المشاركة : ( 545 )
juleyano
Moderator
الصورة الرمزية juleyano
رقم العضوية : 32054
تاريخ التسجيل : Nov 2014
مكان الإقامة :
عدد المشاركات : 7,358
عدد النقاط : 1
قوة التقييم : juleyano is an unknown quantity at this point
جهات الاتصال :

juleyano متواجد حالياً

   

Syria Kabhi Khushi Kabhie Gham (2001) 2CD DVDRip x264 AC3 Esub [DudeLuCiFeR].by. juleyano

كُتب : [ 25-12-2017 ]


Kabhi Khushi Kabhie Gham (2001) 2CD DVDRip x264 AC3 Esub [DudeLuCiFeR].by. juleyano



Stars: Shah Rukh Khan, Kajol, Amitabh Bachchan |
Kareena Kapoor.Hrithik Roshan
Format : Matroska
Format version : Version 4 / Version 2
File size : 1.45 GiB
Duration : 3h 30mn
Overall bit rate : 984 Kbps
Encoded date : UTC 2014-10-08 07:52:33
Video
ID : 1
Format : AVC
Format/Info : Advanced Video Codec
Format profile : High@L3.1
Format settings, CABAC : Yes
Format settings, ReFrames : 8 frames
Codec ID : V_MPEG4/ISO/AVC
Duration : 3h 30mn
Bit rate : 759 Kbps
Width : 704 pixels
Height : 368 pixels
Display aspect ratio : 2.35:1
Original display aspect ratio : 2.35:1
Frame rate mode : Constant
Frame rate : 23.976 fps
Audio
ID : 2
Format : AC-3
Format/Info : Audio Coding 3
Mode extension : CM (complete main)
Format settings, Endianness : Big
Codec ID : A_AC3
Duration : 3h 30mn
Bit rate mode : Constant
Bit rate : 224 Kbps
Channel(s) : 6 channels
Channel positions : Front: L C R, Side: L R, LFE
Sampling rate : 48.0 KHz
Compression mode : Lossy
Text
ID : 3
Format : UTF-8
Codec ID : S_TEXT/UTF8
Codec ID/Info : UTF-8 Plain Text
Default : Yes
Forced : No








1.44 GB

الترجمة العربية الاحترافية بالرابط التالي


توقيع : juleyano


مكتبة جوليانو للافلام الأجنبية الكلاسيكية 1900 - 1990 نسخ عالية الجودة مع الترجمات المتاحة بالنت
http://egystars.com/vb/showthread.php?t=9446
اي رابط لا يعمل من افلامي فقط ضعه هنا من فضلك ليتم تجديده والف شكر
http://egystars.com/vb/showthread.php?t=10125

مدونتي لكافة افلامي الهندية والعربية والاجنبية بنسخ DVD عالية الجودة
http://juleyano-dodo.blogspot.pt


 
 رقم المشاركة : ( 546 )
juleyano
Moderator
الصورة الرمزية juleyano
رقم العضوية : 32054
تاريخ التسجيل : Nov 2014
مكان الإقامة :
عدد المشاركات : 7,358
عدد النقاط : 1
قوة التقييم : juleyano is an unknown quantity at this point
جهات الاتصال :

juleyano متواجد حالياً

   

Syria Adha Din Adhi Raat (1977) WeBRip x264. AC3..5.1.Und.BY.juleyano

كُتب : [ 24-01-2018 ]


Adha Din Adhi Raat (1977) WeBRip x264. AC3..5.1.Und.BY.juleyano



Stars: Vinod Khanna, Shabana Azmi, Asha Parekh |
Format : Matroska
Format version : Version 2
File size : 1.38 GiB
Duration : 2 h 18 min
Overall bit rate : 1 425 kb/s
Writing application : HandBrake 0.10.0 2014112200
Video
ID : 1
Format : AVC
Format/Info : Advanced Video Codec
Format profile : High@L3.1
Format settings : CABAC / 4 Ref Frames
Format settings, CABAC : Yes
Format settings, RefFrames : 4 frames
Codec ID : V_MPEG4/ISO/AVC
Duration : 2 h 18 min
Bit rate : 1 200 kb/s
Width : 656 pixels
Height : 496 pixels
Display aspect ratio : 4:3
Frame rate mode : Constant
Frame rate : 23.976 (24000/1001) FPS
Audio
ID : 2
Format : AC-3
Format/Info : Audio Coding 3
Codec ID : A_AC3
Duration : 2 h 18 min
Bit rate mode : Constant
Bit rate : 224 kb/s
Channel(s) : 6 channels
Channel positions : Front: L C R, Side: L R, LFE
Sampling rate : 48.0 kHz
Frame rate : 31.250 FPS (1536 SPF)
Bit depth : 16 bits
Compression mode : Lossy







1.38 GB



توقيع : juleyano


مكتبة جوليانو للافلام الأجنبية الكلاسيكية 1900 - 1990 نسخ عالية الجودة مع الترجمات المتاحة بالنت
http://egystars.com/vb/showthread.php?t=9446
اي رابط لا يعمل من افلامي فقط ضعه هنا من فضلك ليتم تجديده والف شكر
http://egystars.com/vb/showthread.php?t=10125

مدونتي لكافة افلامي الهندية والعربية والاجنبية بنسخ DVD عالية الجودة
http://juleyano-dodo.blogspot.pt


 
 رقم المشاركة : ( 547 )
juleyano
Moderator
الصورة الرمزية juleyano
رقم العضوية : 32054
تاريخ التسجيل : Nov 2014
مكان الإقامة :
عدد المشاركات : 7,358
عدد النقاط : 1
قوة التقييم : juleyano is an unknown quantity at this point
جهات الاتصال :

juleyano متواجد حالياً

   

Syria Dhamkee (1973) Hindi.Untouched . WeB.DLx264.AAC Arabic.E.SubS . Hon3y.HD.bye.juleyano

كُتب : [ 15-02-2018 ]


Dhamkee (1973) Hindi.Untouched . WeB.DLx264.AAC Arabic.E.SubS . Hon3y.HD.bye.juleyano



Stars: Vinod Khanna, Kumkum, Mehmood Jr. |
Format : Matroska
Format version : Version 4 / Version 2
File size : 999 MiB
Duration : 1 h 48 min
Overall bit rate : 1 286 kb/s
Movie name : Dhamkee 1973 - M@X @ Hon3y
Video
ID : 1
Format : AVC
Format/Info : Advanced Video Codec
Format profile : High@L3
Format settings : CABAC / 4 Ref Frames
Format settings, CABAC : Yes
Format settings, RefFrames : 4 frames
Codec ID : V_MPEG4/ISO/AVC
Duration : 1 h 48 min
Bit rate : 1 228 kb/s
Width : 640 pixels
Height : 480 pixels
Display aspect ratio : 4:3
Frame rate mode : Constant
Frame rate : 25.000 FPS
Audio
ID : 2
Format : AAC
Format/Info : Advanced Audio Codec
Format profile : LC
Codec ID : A_AAC-2
Duration : 1 h 48 min
Bit rate : 48.0 kb/s
Channel(s) : 2 channels
Channel positions : Front: L R
Sampling rate : 48.0 kHz
Frame rate : 46.875 FPS (1024 SPF)
Compression mode : Lossy
Text #1
ID : 3
Format : UTF-8
Codec ID : S_TEXT/UTF8
Codec ID/Info : UTF-8 Plain Text
Duration : 1 h 48 min
Bit rate : 41 b/s
Count of elements : 1110
Stream size : 33.2 KiB (0%)
Language : English
Default : Yes
Forced : No

Text #2
ID : 4
Format : UTF-8
Codec ID : S_TEXT/UTF8
Codec ID/Info : UTF-8 Plain Text
Duration : 1 h 48 min
Bit rate : 69 b/s
Count of elements : 1111
Stream size : 54.6 KiB (0%)
Language : Arabic
Default : No








0.98 GB

الترجمة العربية الاحترافية بالرابط التالي


الملفات المرفقة لايمكنك تحميل المرفقات الا بعد الرد على الموضوع
توقيع : juleyano


مكتبة جوليانو للافلام الأجنبية الكلاسيكية 1900 - 1990 نسخ عالية الجودة مع الترجمات المتاحة بالنت
http://egystars.com/vb/showthread.php?t=9446
اي رابط لا يعمل من افلامي فقط ضعه هنا من فضلك ليتم تجديده والف شكر
http://egystars.com/vb/showthread.php?t=10125

مدونتي لكافة افلامي الهندية والعربية والاجنبية بنسخ DVD عالية الجودة
http://juleyano-dodo.blogspot.pt


 
 رقم المشاركة : ( 548 )
juleyano
Moderator
الصورة الرمزية juleyano
رقم العضوية : 32054
تاريخ التسجيل : Nov 2014
مكان الإقامة :
عدد المشاركات : 7,358
عدد النقاط : 1
قوة التقييم : juleyano is an unknown quantity at this point
جهات الاتصال :

juleyano متواجد حالياً

   

Syria Pyaar Kiya To Darna Kya (1998) WEBRip x264.AAC.Arabic. Esub.BY.juleyan

كُتب : [ 04-03-2018 ]


Pyaar Kiya To Darna Kya (1998) WEBRip x264.AAC.Arabic. Esub.BY.juleyan



Stars: Salman Khan, Kajol,Dharmendra, Arbaaz Khan |
Format : MPEG-4
Format profile : Base Media / Version 2
Codec ID : mp42 (isom/mp42)
File size : 1.27 GiB
Duration : 2 h 36 min
Overall bit rate mode : Variable
Overall bit rate : 1 158 kb/s
Encoded date : UTC 2017-10-20 12:46:06
Video
ID : 1
Format : AVC
Format/Info : Advanced Video Codec
Format profile : Main@L3.1
Format settings : CABAC / 3 Ref Frames
Format settings, CABAC : Yes
Format settings, RefFrames : 3 frames
Codec ID : avc1
Codec ID/Info : Advanced Video Coding
Duration : 2 h 36 min
Bit rate : 1 029 kb/s
Width : 1 280 pixels
Height : 544 pixels
Display aspect ratio : 2.35:1
Frame rate mode : Constant
Frame rate : 24.000 FPS
Color space : YUV
Audio
ID : 2
Format : AAC
Format/Info : Advanced Audio Codec
Format profile : LC
Codec ID : mp4a-40-2
Duration : 2 h 36 min
Bit rate mode : Variable
Bit rate : 126 kb/s
Channel(s) : 2 channels
Channel positions : Front: L R
Sampling rate : 44.1 kHz
Frame rate : 43.066 FPS (1024 SPF)
Compression mode : Lossy







1.27 GB

الترجمة العربية الاحترافية بالرابط التالي


الملفات المرفقة لايمكنك تحميل المرفقات الا بعد الرد على الموضوع
توقيع : juleyano


مكتبة جوليانو للافلام الأجنبية الكلاسيكية 1900 - 1990 نسخ عالية الجودة مع الترجمات المتاحة بالنت
http://egystars.com/vb/showthread.php?t=9446
اي رابط لا يعمل من افلامي فقط ضعه هنا من فضلك ليتم تجديده والف شكر
http://egystars.com/vb/showthread.php?t=10125

مدونتي لكافة افلامي الهندية والعربية والاجنبية بنسخ DVD عالية الجودة
http://juleyano-dodo.blogspot.pt


موضوع مغلق

مواقع النشر (المفضلة)

الكلمات الدلالية (Tags)
1, 1964, 1965, 1966, 1968, 1969, 1970, 1971, 1972, 1973, 1974, 1975, 1976, 1977, 1978, 1979, 1980, 1981, 1982, 1983, 1984, 1985, 1985dvdrip, 1986, 1986dvdripx264ac3arabicesubswild, 1987, 1988, 1989, 1990, 1991, 1992, 1993, 1994, 1995, 1996, 1997, 1cd, 1cddvdrip, 1cddvdripx264aacarabicsubs, 1gb, 2, 2001, 2003, 2004, 2cd, 2cddvdripxvidac3esubsbyjuleyano, 2channels, 40, 480p, 51, 51arabic, 51esub, 770mb, aac, aacarabic, aacbyjuleyano, aacchaptersarabicesubbyjuleyano, aacesubchaptersphantombyjuleyano, aadmi, aag, aandhi, aankh, aas, ac3, ac36, ac3arabic, ac3arabicesub, ac3arabicesubbyjuleyano, ac3arabicesubexdrbyjuleyano, ac3arabicsubbyjuleyano, ac3arabicsubchapters, ac3arabicsubsbyjuleyano, ac3bulgaresubsbyjuleyano, ac3by, ac3byjuleyano, ac3chaptersbyjuleyano, ac3esubbyjuleyano, ac3esubsby, ac3esubsbyjuleyano, ac3hardesubsbyjuleyano, acchesubdudeluciferbyjuleyano, acesubs, acesubsxmrexd, action, alibaba, ankhen, anupama, arabic, arabicesubbyjuleyano, arabicsubby, aur, awaz, ayee, azaad, baazi, bacha, badle, baghavat, balram, balwan, bandi, batwara, begaanaa, bela, bhatija, biwi, burning, byjuleyano, cd, cddvdrip, cddvdripx264aacarabicesubbyjuleyano, cdripxvidmp3esubby, cdwebrip, chacha, chaitali, challenge, channels, channelsarabic, channelsarabicesubbyjuleyano, channelsesubbyjuleyano, channelsesubchaptersbyjuleyano, channelsesubsbyjuleyano, channelsphantombyjuleyano, charas, chor, chunaoti, chupke, crook, dada, dadagiri, darbyjuleyano, daxclusivesbyjuleyano, dbbiansbyjuleyano, desh, devataa, devta, dharam, dharma, dillagi, doctorbyjuleyano, doonga, dori, dost, dream, dudelucifer, dudeluciferbyjuleyano, dushman, dvd, dvdrip, dvdripx264, dvdripx264aac51esubschaptersbyjuleyano, dvdripx264ac3esubbyjuleyano, dvdripx264ac3esubschaptersbyjuleyano, dvdripx264acesub, dvdripx264acesubschaptersbyjuleyano, dvdripx264achardesubsbyjuleyano, dvdripx264mp3arabicesubwild, dvdripxvid, dvdripxvidac36, dvdripxvidac36charabicesub, dvdripxvidac3arabicesubsbyjuleyano, dvdripxvidac3esubsbyjuleyano, dvdripxvidarabic, dvdripxvidesubbyjuleyano, dvdripxvidmp3arabicesubby, dvdripxvidmp3esubbyjuleyano, dvdripxvidmp3esubm2tvbyjuleyano, dvdripxvidmp3esubsdesi, dvdripxvidmp3esubsteam, dvdxvidac36, elaanejung, esub, esubbyjuleyano, esubchapter, esubchaptersbyjuleyano, esubexdtbyjuleyano, esuboktoberbyjuleyano, esubs, esubs6, esubsbyjuleyano, esubschaptersbyjuleyano, esubsdudeluciferbyjuleyano, esubsphantom, exdby, exdrbyjuleyano, exdt, ترجمة, farishtay, fauji, gaadi, gaon, gardi, geeta, ghazab, ghulami, girl, guddi, gunda, hai, hamdam, haqeeqat, haseen, hatheli, hd, hindi, hukumat, hum, humlaa, hx264mp3arabic, insaaf, insaan, insaf, insaniyat, intequam, international, izzat1968dvdripx264ac3chaptersesubsddrbyj, jaan, jaani, jagir, jalaa, jani, jawan, jeene, jeevan, jhutha, joker, juleyano, ka, kaa1985, kaajal, kaatil, kab, kahan, kahani, kal, kanoon, kar, karishma, karma, kasam, katilon, kaun, ke, kee, khatron, khiladi, ki, ki1973dvdripxvidmp3esubs, kismat, ko, krodhi, kshatriya, kudrat, kyoon, lalkar, loha, loonga, maa, maar, mafia, mahaveera, maidanejung, main, mamta, mera, mere, milan, mp3, mp3phantombyjuleyano, mp4, mrityu, na, naaka, naam, nahi, naukar, naya, ntsc, paap, paappi, paas, pakistani, patthar, payal, pe, phagun, phantom, phantombyjuleyano, phool, pocket, policewala, pratiggya, professor, pukar, pyarelal, qayamat, raaj, raakh, raja, rajput1982dvdripxvidmp3arabicesubbyjuleyan, rakhwale, ram, razia, resham, rip, ripx264acarabicesubschaptersumapatiby, saazish, sach, sachai, samadhi, samrat, saveray, sbyjuleyano, se, seeta, shalimar, sharafat, shehzaade, sherdil, shikaari, shiva, sholaycddvdripxvidmp3arabicesubdirec, sitamgar, sone, subbyjuleyano, suhaag, suhaaga, sultan, sultanat, sunny, superman, tada, tahalka, taimoor, takrana, taqat, tdabyjuleyano, teesri, tiger, tigerbyjuleyano, tilak, tmbbyjuleyano, toofan, torscutbyjuleyano, train, trinetra, tum, uleyano, untouched, veer, veeru, virodhi1992, wali, watan, web, webdrip, webrip, webripx264, webripx264ac3byjuleyano, webripxvidmp3arabic, x264, x264aac51arabic, x264aac51arbicesub, x264aacarabic, x264aacarabicesubbyjuleyano, x264aacarabicesubschapters, x264ac3, x264ac36, x264ac36arabic, x264ac3arabic, x264ac3arabicesubsbyjuleyano, x264ac3arabicsubbyjuleyano, x264ac3by, x264ac3byjuleyano, x264ac3chapters, x264ac3esubbyjuleyano, x264ac3esubchaptersbyjuleyano, x264ac3hardrosian, x264acchaptersbyjuleyano, x264mp3, x264mp3esubbyjuleyano, x264mp3phantombyjuleyano, xh264, xmr, xvid, فيلم, zalzala, zamana


الذين يشاهدون محتوى الموضوع الآن : 1 ( الأعضاء 0 والزوار 1)
 
أدوات الموضوع
انواع عرض الموضوع

تعليمات المشاركة
لا تستطيع إضافة مواضيع جديدة
لا تستطيع الرد على المواضيع
لا تستطيع إرفاق ملفات
لا تستطيع تعديل مشاركاتك

BB code is متاحة
كود [IMG] متاحة
كود HTML معطلة

الانتقال السريع


الساعة الآن 04:04 PM


Powered by vBulletin® Copyright ©2010 - 2018 Jelsoft Enterprises Ltd.
جميع ما ينشر من مواضيع و ردود تعبر عن رآي كاتبها فقط