العودة   :: EgyStars :: > المنتدي الفني > أفلام هندي

موضوع مغلق
 
أدوات الموضوع انواع عرض الموضوع
 
 رقم المشاركة : ( 391 )
juleyano
Moderator
الصورة الرمزية juleyano
رقم العضوية : 32054
تاريخ التسجيل : Nov 2014
مكان الإقامة :
عدد المشاركات : 7,568
عدد النقاط : 1
قوة التقييم : juleyano is an unknown quantity at this point
جهات الاتصال :

juleyano غير متواجد حالياً

   

افتراضي

كُتب : [ 14-02-2018 ]


Izzat (1991) Hindi WeB.DLx264.AAC Arabic.E.SubS . Hon3y.HD.bye.juleyano



Stars: Jackie Shroff, Sangeeta Bijlani, Gulshan Grover |
Format : Matroska
Format version : Version 4 / Version 2
File size : 1.40 GiB
Duration : 2 h 36 min
Overall bit rate : 1 280 kb/s
Movie name : Izzat 1997 - M@X @ Hon3y
Video
ID : 1
Format : AVC
Format/Info : Advanced Video Codec
Format profile : High@L3
Format settings : CABAC / 4 Ref Frames
Format settings, CABAC : Yes
Format settings, RefFrames : 4 frames
Codec ID : V_MPEG4/ISO/AVC
Duration : 2 h 36 min
Bit rate : 1 228 kb/s
Width : 640 pixels
Height : 480 pixels
Display aspect ratio : 4:3
Frame rate mode : Constant
Frame rate : 25.000 FPS
Audio
ID : 2
Format : AAC
Format/Info : Advanced Audio Codec
Format profile : LC
Codec ID : A_AAC-2
Duration : 2 h 36 min
Bit rate : 48.0 kb/s
Channel(s) : 2 channels
Channel positions : Front: L R
Sampling rate : 48.0 kHz
Frame rate : 46.875 FPS (1024 SPF)
Compression mode : Lossy








1.4 GB

الترجمة العربية الاحترافية بالرابط التالي


توقيع : juleyano

من ٢٦ /١١ لغاية ١٠ / ٢ /٢٠١٩ ساكون غائب عن المنتدى لظروفي الصحية واتمنى ان اعود بخير

 
 رقم المشاركة : ( 392 )
juleyano
Moderator
الصورة الرمزية juleyano
رقم العضوية : 32054
تاريخ التسجيل : Nov 2014
مكان الإقامة :
عدد المشاركات : 7,568
عدد النقاط : 1
قوة التقييم : juleyano is an unknown quantity at this point
جهات الاتصال :

juleyano غير متواجد حالياً

   

Syria Sapoot (1996) DvDrip x264.AC3.Arabic.Esub.Hon3y.BY.juleyano

كُتب : [ 16-02-2018 ]


Sapoot (1996) DvDrip x264.AC3.Arabic.Esub.Hon3y.BY.juleyano



Stars: Akshay Kumar, Sunil Shetty, Karisma Kapoor |
Format : Matroska
Format version : Version 2
File size : 1.52 GiB
Duration : 2 h 32 min
Overall bit rate : 1 427 kb/s
Movie name : Sapoot 1996 - M@X @ Hon3y
Video
ID : 1
Format : AVC
Format/Info : Advanced Video Codec
Format profile : High@L3.1
Format settings : CABAC / 4 Ref Frames
Format settings, CABAC : Yes
Format settings, RefFrames : 4 frames
Codec ID : V_MPEG4/ISO/AVC
Duration : 2 h 32 min
Bit rate : 1 200 kb/s
Width : 1 280 pixels
Height : 544 pixels
Display aspect ratio : 2.40:1
Frame rate mode : Constant
Frame rate : 23.976 (24000/1001) FPS
Audio
ID : 2
Format : AC-3
Format/Info : Audio Coding 3
Codec ID : A_AC3
Duration : 2 h 32 min
Bit rate mode : Constant
Bit rate : 224 kb/s
Channel(s) : 2 channels
Channel positions : Front: L R
Sampling rate : 48.0 kHz
Frame rate : 31.250 FPS (1536 SPF)
Bit depth : 16 bits
Compression mode : Lossy







1.5 GB

الترجمة العربية الاحترافية بالرابط التالي


توقيع : juleyano

من ٢٦ /١١ لغاية ١٠ / ٢ /٢٠١٩ ساكون غائب عن المنتدى لظروفي الصحية واتمنى ان اعود بخير

 
 رقم المشاركة : ( 393 )
juleyano
Moderator
الصورة الرمزية juleyano
رقم العضوية : 32054
تاريخ التسجيل : Nov 2014
مكان الإقامة :
عدد المشاركات : 7,568
عدد النقاط : 1
قوة التقييم : juleyano is an unknown quantity at this point
جهات الاتصال :

juleyano غير متواجد حالياً

   

Syria Dhamkee (1973) Hindi.Untouched . WeB.DLx264.AAC Arabic.E.SubS . Hon3y.HD.bye.juleyano

كُتب : [ 16-02-2018 ]


Dhamkee (1973) Hindi.Untouched . WeB.DLx264.AAC Arabic.E.SubS . Hon3y.HD.bye.juleyano



Stars: Vinod Khanna, Kumkum, Mehmood Jr. |
Format : Matroska
Format version : Version 4 / Version 2
File size : 999 MiB
Duration : 1 h 48 min
Overall bit rate : 1 286 kb/s
Movie name : Dhamkee 1973 - M@X @ Hon3y
Video
ID : 1
Format : AVC
Format/Info : Advanced Video Codec
Format profile : High@L3
Format settings : CABAC / 4 Ref Frames
Format settings, CABAC : Yes
Format settings, RefFrames : 4 frames
Codec ID : V_MPEG4/ISO/AVC
Duration : 1 h 48 min
Bit rate : 1 228 kb/s
Width : 640 pixels
Height : 480 pixels
Display aspect ratio : 4:3
Frame rate mode : Constant
Frame rate : 25.000 FPS
Audio
ID : 2
Format : AAC
Format/Info : Advanced Audio Codec
Format profile : LC
Codec ID : A_AAC-2
Duration : 1 h 48 min
Bit rate : 48.0 kb/s
Channel(s) : 2 channels
Channel positions : Front: L R
Sampling rate : 48.0 kHz
Frame rate : 46.875 FPS (1024 SPF)
Compression mode : Lossy
Text #1
ID : 3
Format : UTF-8
Codec ID : S_TEXT/UTF8
Codec ID/Info : UTF-8 Plain Text
Duration : 1 h 48 min
Bit rate : 41 b/s
Count of elements : 1110
Stream size : 33.2 KiB (0%)
Language : English
Default : Yes
Forced : No

Text #2
ID : 4
Format : UTF-8
Codec ID : S_TEXT/UTF8
Codec ID/Info : UTF-8 Plain Text
Duration : 1 h 48 min
Bit rate : 69 b/s
Count of elements : 1111
Stream size : 54.6 KiB (0%)
Language : Arabic
Default : No









0.98 GB

الترجمة العربية الاحترافية بالرابط التالي


توقيع : juleyano

من ٢٦ /١١ لغاية ١٠ / ٢ /٢٠١٩ ساكون غائب عن المنتدى لظروفي الصحية واتمنى ان اعود بخير

 
 رقم المشاركة : ( 394 )
juleyano
Moderator
الصورة الرمزية juleyano
رقم العضوية : 32054
تاريخ التسجيل : Nov 2014
مكان الإقامة :
عدد المشاركات : 7,568
عدد النقاط : 1
قوة التقييم : juleyano is an unknown quantity at this point
جهات الاتصال :

juleyano غير متواجد حالياً

   

Syria Raampur Ka Lakshman (1972) Hindi WeB.DLx264.AC3.Arabic.E.SubS . Hon3y.HD.bye.juleyano

كُتب : [ 17-02-2018 ]


Raampur Ka Lakshman (1972) Hindi WeB.DLx264.AC3.Arabic.E.SubS . Hon3y.HD.bye.juleyano



Stars: Randhir Kapoor, Rekha, Shatrughan Sinha |
Format : Matroska
Format version : Version 2
File size : 1.38 GiB
Duration : 2 h 18 min
Overall bit rate : 1 425 kb/s
Movie name : Raampur Ka Lakshman 1972 - M@X @ Hon3y
Video
ID : 1
Format : AVC
Format/Info : Advanced Video Codec
Format profile : High@L3.1
Format settings : CABAC / 4 Ref Frames
Format settings, CABAC : Yes
Format settings, RefFrames : 4 frames
Codec ID : V_MPEG4/ISO/AVC
Duration : 2 h 18 min
Bit rate : 1 200 kb/s
Width : 1 280 pixels
Height : 720 pixels
Display aspect ratio : 16:9
Frame rate mode : Constant
Frame rate : 23.976 (24000/1001) FPS
Audio
ID : 2
Format : AC-3
Format/Info : Audio Coding 3
Codec ID : A_AC3
Duration : 2 h 18 min
Bit rate mode : Constant
Bit rate : 224 kb/s
Channel(s) : 2 channels
Channel positions : Front: L R
Sampling rate : 48.0 kHz
Frame rate : 31.250 FPS (1536 SPF)
Bit depth : 16 bits
Compression mode : Lossy








1.38 GB

الترجمة العربية الاحترافية بالرابط التالي


توقيع : juleyano

من ٢٦ /١١ لغاية ١٠ / ٢ /٢٠١٩ ساكون غائب عن المنتدى لظروفي الصحية واتمنى ان اعود بخير

 
 رقم المشاركة : ( 395 )
juleyano
Moderator
الصورة الرمزية juleyano
رقم العضوية : 32054
تاريخ التسجيل : Nov 2014
مكان الإقامة :
عدد المشاركات : 7,568
عدد النقاط : 1
قوة التقييم : juleyano is an unknown quantity at this point
جهات الاتصال :

juleyano غير متواجد حالياً

   

Syria Kati Patang (1970) Hindi Untouched WEB-DLx264.AAC Arabic.E.SubS . Hon3y.HD.bye.juleyano

كُتب : [ 18-02-2018 ]


Kati Patang (1970) Hindi Untouched WEB-DLx264.AAC Arabic.E.SubS . Hon3y.HD.bye.juleyano



Stars: Rajesh Khanna, Asha Parekh, Prem Chopra |
Format : Matroska
Format version : Version 2
File size : 1.48 GiB
Duration : 2 h 28 min
Overall bit rate : 1 426 kb/s
Movie name : Kati Patang 1971 - M@X @ Hon3yHD
Video
ID : 1
Format : AVC
Format/Info : Advanced Video Codec
Format profile : High@L3.1
Format settings : CABAC / 4 Ref Frames
Format settings, CABAC : Yes
Format settings, RefFrames : 4 frames
Codec ID : V_MPEG4/ISO/AVC
Duration : 2 h 28 min
Bit rate : 1 200 kb/s
Width : 1 280 pixels
Height : 720 pixels
Display aspect ratio : 16:9
Frame rate mode : Constant
Frame rate : 23.976 (24000/1001) FPS
Color space : YUV
Audio
ID : 2
Format : AC-3
Format/Info : Audio Coding 3
Codec ID : A_AC3
Duration : 2 h 28 min
Bit rate mode : Constant
Bit rate : 224 kb/s
Channel(s) : 2 channels
Channel positions : Front: L R
Sampling rate : 48.0 kHz
Frame rate : 31.250 FPS (1536 SPF)
Bit depth : 16 bits
Compression mode : Lossy







1.47 GB

الترجمة العربية الاحترافية بالرابط التالي




توقيع : juleyano

من ٢٦ /١١ لغاية ١٠ / ٢ /٢٠١٩ ساكون غائب عن المنتدى لظروفي الصحية واتمنى ان اعود بخير

 
 رقم المشاركة : ( 396 )
juleyano
Moderator
الصورة الرمزية juleyano
رقم العضوية : 32054
تاريخ التسجيل : Nov 2014
مكان الإقامة :
عدد المشاركات : 7,568
عدد النقاط : 1
قوة التقييم : juleyano is an unknown quantity at this point
جهات الاتصال :

juleyano غير متواجد حالياً

   

Syria Bezubaan (1982) Hindi WeB.DLx264.AAC Arabic.E.SubS . Hon3y.HD.bye.juleyano

كُتب : [ 19-02-2018 ]


Bezubaan (1982) Hindi WeB.DLx264.AAC Arabic.E.SubS . Hon3y.HD.bye.juleyano



Stars: Shashi Kapoor, Reena Roy,Naseeruddin Shah|
Format : Matroska
Format version : Version 4 / Version 2
File size : 1.20 GiB
Duration : 2 h 15 min
Overall bit rate : 1 274 kb/s
Movie name : Bezubaan 1982 - M@X @ Hon3y
Encoded date : UTC 2018-02-10 11:58:32
Video
ID : 1
Format : AVC
Format/Info : Advanced Video Codec
Format profile : High@L3
Format settings : CABAC / 4 Ref Frames
Format settings, CABAC : Yes
Format settings, RefFrames : 4 frames
Codec ID : V_MPEG4/ISO/AVC
Duration : 2 h 15 min
Bit rate : 1 228 kb/s
Width : 640 pixels
Height : 480 pixels
Display aspect ratio : 4:3
Frame rate mode : Constant
Frame rate : 25.000 FPS
Color space : YUV
Audio
ID : 2
Format : AAC
Format/Info : Advanced Audio Codec
Format profile : LC
Codec ID : A_AAC-2
Duration : 2 h 15 min
Bit rate : 48.0 kb/s
Channel(s) : 2 channels
Channel positions : Front: L R
Sampling rate : 48.0 kHz
Frame rate : 46.875 FPS (1024 SPF)
Compression mode : Lossy








1.2 GB

الترجمة العربية الاحترافية بالرابط التالي


توقيع : juleyano

من ٢٦ /١١ لغاية ١٠ / ٢ /٢٠١٩ ساكون غائب عن المنتدى لظروفي الصحية واتمنى ان اعود بخير

 
 رقم المشاركة : ( 397 )
juleyano
Moderator
الصورة الرمزية juleyano
رقم العضوية : 32054
تاريخ التسجيل : Nov 2014
مكان الإقامة :
عدد المشاركات : 7,568
عدد النقاط : 1
قوة التقييم : juleyano is an unknown quantity at this point
جهات الاتصال :

juleyano غير متواجد حالياً

   

Syria Kala Pani (1980) Hindi WeB.DLx264.AAC.Arabic.E.SubS.Hon3y.HD.bye.juleyano

كُتب : [ 20-02-2018 ]


Kala Pani (1980) Hindi WeB.DLx264.AAC.Arabic.E.SubS.Hon3y.HD.bye.juleyano

dvd5 not so good


Stars:Shashi Kapoor,Neetu Singh,Babita Kapoor |
Format : Matroska
Format version : Version 4 / Version 2
File size : 1.10 GiB
Duration : 2 h 2 min
Overall bit rate : 1 278 kb/s
Movie name : Kaala Pani 1980 - M@X @ Hon3y
Video
ID : 1
Format : AVC
Format/Info : Advanced Video Codec
Format profile : High@L3
Format settings : CABAC / 4 Ref Frames
Format settings, CABAC : Yes
Format settings, RefFrames : 4 frames
Codec ID : V_MPEG4/ISO/AVC
Duration : 2 h 2 min
Bit rate : 1 228 kb/s
Width : 640 pixels
Height : 480 pixels
Display aspect ratio : 4:3
Frame rate mode : Constant
Frame rate : 25.000 FPS
Audio
ID : 2
Format : AAC
Format/Info : Advanced Audio Codec
Format profile : LC
Codec ID : A_AAC-2
Duration : 2 h 2 min
Bit rate : 48.0 kb/s
Channel(s) : 2 channels
Channel positions : Front: L R
Sampling rate : 48.0 kHz
Frame rate : 46.875 FPS (1024 SPF)
Compression mode : Lossy







1.1 GB

الترجمة العربية الاحترافية بالرابط التالي


توقيع : juleyano

من ٢٦ /١١ لغاية ١٠ / ٢ /٢٠١٩ ساكون غائب عن المنتدى لظروفي الصحية واتمنى ان اعود بخير

 
 رقم المشاركة : ( 398 )
juleyano
Moderator
الصورة الرمزية juleyano
رقم العضوية : 32054
تاريخ التسجيل : Nov 2014
مكان الإقامة :
عدد المشاركات : 7,568
عدد النقاط : 1
قوة التقييم : juleyano is an unknown quantity at this point
جهات الاتصال :

juleyano غير متواجد حالياً

   

Syria Sarkar 3 (2017) Hindi.Untouched.WEB.DL x264.MSubS.Hon3y. bye.juleyano

كُتب : [ 21-02-2018 ]


Sarkar 3 (2017) Hindi.Untouched.WEB.DL x264.MSubS.Hon3y. bye.juleyano



Stars: Amitabh Bachchan, Abhishek Bachchan, Jackie Shroff |
Format : Matroska
Format version : Version 4 / Version 2
File size : 1.16 GiB
Duration : 2 h 10 min
Overall bit rate : 1 274 kb/s
Movie name : Sarkar 3 2017- M@X @ Hon3y
Video
ID : 1
Format : AVC
Format/Info : Advanced Video Codec
Format profile : High@L3
Format settings : CABAC / 4 Ref Frames
Format settings, CABAC : Yes
Format settings, RefFrames : 4 frames
Codec ID : V_MPEG4/ISO/AVC
Duration : 2 h 10 min
Bit rate : 1 228 kb/s
Width : 640 pixels
Height : 360 pixels
Display aspect ratio : 16:9
Frame rate mode : Constant
Frame rate : 24.000 FPS
Color space : YUV
Audio
ID : 2
Format : AAC
Format/Info : Advanced Audio Codec
Format profile : LC
Codec ID : A_AAC-2
Duration : 2 h 10 min
Bit rate : 48.0 kb/s
Channel(s) : 2 channels
Channel positions : Front: L R
Sampling rate : 48.0 kHz
Frame rate : 46.875 FPS (1024 SPF)
Compression mode : Lossy
Text #1
ID : 3
Format : UTF-8
Codec ID : S_TEXT/UTF8
Codec ID/Info : UTF-8 Plain Text
Duration : 2 h 10 min
Bit rate : 43 b/s
Count of elements : 1292
Stream size : 41.3 KiB (0%)
Language : English
Text #2
ID : 4
Format : UTF-8
Codec ID : S_TEXT/UTF8
Codec ID/Info : UTF-8 Plain Text
Duration : 2 h 10 min
Bit rate : 63 b/s
Count of elements : 1292
Stream size : 60.3 KiB (0%)
Language : Arabic







1.16 GB

الترجمة العربية الاحترافية بالرابط التالي


توقيع : juleyano

من ٢٦ /١١ لغاية ١٠ / ٢ /٢٠١٩ ساكون غائب عن المنتدى لظروفي الصحية واتمنى ان اعود بخير

 
 رقم المشاركة : ( 399 )
juleyano
Moderator
الصورة الرمزية juleyano
رقم العضوية : 32054
تاريخ التسجيل : Nov 2014
مكان الإقامة :
عدد المشاركات : 7,568
عدد النقاط : 1
قوة التقييم : juleyano is an unknown quantity at this point
جهات الاتصال :

juleyano غير متواجد حالياً

   

Syria Happy Bhag Jayegi (2016) 1080p Hindi Untouched WEB-DLx264.AC3. Arabic.E.SubS . Hon3y.HD.bye.juleyano

كُتب : [ 23-02-2018 ]


Happy Bhag Jayegi (2016) 1080p Hindi Untouched WEB-DLx264.AC3. Arabic.E.SubS . Hon3y.HD.bye.juleyano



Stars: Diana Penty, Abhay Deol, Jimmy Shergill |
Format : Matroska
Format version : Version 2
File size : 1.26 GiB
Duration : 2 h 5 min
Overall bit rate : 1 428 kb/s
Writing application : HandBrake 0.10.0 2014112200
Writing library : Lavf55.12.0
Video
ID : 1
Format : AVC
Format/Info : Advanced Video Codec
Format profile : High@L3.1
Format settings : CABAC / 4 Ref Frames
Format settings, CABAC : Yes
Format settings, RefFrames : 4 frames
Codec ID : V_MPEG4/ISO/AVC
Duration : 2 h 5 min
Bit rate : 1 200 kb/s
Width : 1 280 pixels
Height : 544 pixels
Display aspect ratio : 2.35:1
Frame rate mode : Constant
Frame rate : 23.976 (24000/1001) FPS
Color space : YUV
Audio
ID : 2
Format : AC-3
Format/Info : Audio Coding 3
Codec ID : A_AC3
Duration : 2 h 5 min
Bit rate mode : Constant
Bit rate : 224 kb/s
Channel(s) : 2 channels
Channel positions : Front: L R
Sampling rate : 48.0 kHz
Frame rate : 31.250 FPS (1536 SPF)
Bit depth : 16 bits
Compression mode : Lossy







1.25 GB

الترجمة العربية الاحترافية بالرابط التالي


توقيع : juleyano

من ٢٦ /١١ لغاية ١٠ / ٢ /٢٠١٩ ساكون غائب عن المنتدى لظروفي الصحية واتمنى ان اعود بخير

 
 رقم المشاركة : ( 400 )
juleyano
Moderator
الصورة الرمزية juleyano
رقم العضوية : 32054
تاريخ التسجيل : Nov 2014
مكان الإقامة :
عدد المشاركات : 7,568
عدد النقاط : 1
قوة التقييم : juleyano is an unknown quantity at this point
جهات الاتصال :

juleyano غير متواجد حالياً

   

Syria Aatank Hi Aatank (1995) Hindi Untouched WEB-DLx264.AAC Arabic.E.SubS . Hon3y.HD.bye.juleyano

كُتب : [ 24-02-2018 ]


Aatank Hi Aatank (1995) Hindi Untouched WEB-DLx264.AAC Arabic.E.SubS . Hon3y.HD.bye.juleyano



Stars: Rajinikanth, Aamir Khan, Juhi Chawla |
Format : Matroska
Format version : Version 4 / Version 2
File size : 1.37 GiB
Duration : 2 h 33 min
Overall bit rate : 1 274 kb/s
Movie name : Aatank Hi Aatank 1995-Hon3y
Encoded date : UTC 2017-10-02 14:42:10
Video
ID : 1
Format : AVC
Format/Info : Advanced Video Codec
Format profile : High@L3
Format settings : CABAC / 4 Ref Frames
Format settings, CABAC : Yes
Format settings, RefFrames : 4 frames
Codec ID : V_MPEG4/ISO/AVC
Duration : 2 h 33 min
Bit rate : 1 228 kb/s
Width : 640 pixels
Height : 480 pixels
Display aspect ratio : 4:3
Frame rate mode : Constant
Frame rate : 25.000 FPS
Color space : YUV
Audio
ID : 2
Format : AAC
Format/Info : Advanced Audio Codec
Format profile : LC
Codec ID : A_AAC-2
Duration : 2 h 33 min
Bit rate : 48.0 kb/s
Channel(s) : 2 channels
Channel positions : Front: L R
Sampling rate : 48.0 kHz
Frame rate : 46.875 FPS (1024 SPF)
Compression mode : Lossy








1.37 GB

الترجمة العربية الاحترافية بالرابط التالي


توقيع : juleyano

من ٢٦ /١١ لغاية ١٠ / ٢ /٢٠١٩ ساكون غائب عن المنتدى لظروفي الصحية واتمنى ان اعود بخير

موضوع مغلق

مواقع النشر (المفضلة)

الكلمات الدلالية (Tags)
1958, 1967, 1970, 1974, 1977, 1980, 1981, 1982, 1983dvdrip, 1984, 1985, 1986, 1989, 1990, 1992, 1994, 1996, 1997, 1999, 1cd, 1cddvdripx264a, 1cdrip, 2001, 2002, 2003, 2cd, 2cddvdripx264untouched, 2cddvdripxvidmp3subsmenbyjuleyano, 3d, 480p, 51esubhon3ybyjuleyano, 51esubs, 6ch, aa3arabic, aac, aacbyjuleyano, aacchaptersbyjuleyano, aacesubchapters, aar, ac, ac3, ac36, ac3alicbyjuleyano, ac3byjuleyano, ac3chaptersbyjuleyano, ac3esubbyjuleyano, ac3esubschaptersumapatibyjuleyano, ac3hardesub, ac3hon3ybyjuleyano, agni, alicetdbbbyjuleyano, andho, apni, audio, aur, bahania, banegi, bengali, bichar, byjuleyano, cd, channels, channelschapters, channelsesubchaptersbyjuleyano, dard, deeka, devta, dhuan, dostanapdvdrip, dudelucifer, dudeluciferbyjuleyaano, dulhania, duuje, dvdrip, dvdripxvidesub6, eena, ek, esub, esubbyjuleyano, esubchaptersbyjuleyano, esubs, exd, gharana, granth, hai, harjaee, hd, heera, hindi, hindustani, hon3ybyjuleyano, horror, hum, imtihan, jay, juaa, ka, kasam1981webrip, ke, khoon, khuda, khwab, krantikari, lal, liye, love, meena, mera, meri, moojrim, muqaddar, طلب, paanch, paar, panna, parwana, pasand, pati, patita, patthar, phantom, phantombyjuleyano, prem, priya1978dvdrip, pyaari, pyar, qaidi, raaj, raat, raja, rip, rishta, saamri, sanam, shapath, sherehindustan, sikander, sirf, story, tilak, tombyjuleyano, train, untouched, utsav, varsha, vijay, web, webrip, webripx264, x264, x264aacesubbyjuleyano, x264aacphantombyjuleyano, x264ac3, x264ac3byjuleyano, x264ac3esubsbyjuleyano, x264acesubsbyjuleyano, xmr, yahudi, فيلم, zindagi


الذين يشاهدون محتوى الموضوع الآن : 1 ( الأعضاء 0 والزوار 1)
 
أدوات الموضوع
انواع عرض الموضوع

تعليمات المشاركة
لا تستطيع إضافة مواضيع جديدة
لا تستطيع الرد على المواضيع
لا تستطيع إرفاق ملفات
لا تستطيع تعديل مشاركاتك

BB code is متاحة
كود [IMG] متاحة
كود HTML معطلة

الانتقال السريع


الساعة الآن 02:38 AM


Powered by vBulletin® Copyright ©2010 - 2018 Jelsoft Enterprises Ltd.
جميع ما ينشر من مواضيع و ردود تعبر عن رآي كاتبها فقط