العودة   :: EgyStars :: > المنتدي الفني > أفلام هندي

إضافة رد
 
أدوات الموضوع انواع عرض الموضوع
رقم المشاركة : ( 1 )
الصورة الرمزية juleyano
 
juleyano
Moderator

juleyano غير متواجد حالياً

       
رقم العضوية : 32054
تاريخ التسجيل : Nov 2014
مكان الإقامة : Portugal
عدد المشاركات : 15,496
عدد النقاط : 1
قوة التقييم : juleyano is an unknown quantity at this point
جهات الاتصال :
Syria Jaagruti (1993) DvDRipx264.AC3.Esub.5.1.Wild Tiger [Team ExDR] BY juleyano

كُتب : [ 24-10-2017 ]


Jaagruti (1993) DvDRipx264.AC3.Esub.5.1.Wild Tiger [Team ExDR] BY juleyano



Stars: Salman Khan, Karisma Kapoor, Ashok Saraf |
Format : Matroska
Format version : Version 4 / Version 2
File size : 896 MiB
Duration : 2 h 14 min
Overall bit rate : 931 kb/s
Encoded date : UTC 2013-08-16 08:48:07
Video
ID : 1
Format : AVC
Format/Info : Advanced Video Codec
Format profile : High@L3
Format settings, CABAC : Yes
Format settings, ReFrames : 4 frames
Codec ID : V_MPEG4/ISO/AVC
Duration : 2 h 14 min
Bit rate : 673 kb/s
Width : 720 pixels
Height : 304 pixels
Display aspect ratio : 1.957
Original display aspect rat : 1.955
Frame rate mode : Constant
Frame rate : 25.000 FPS
Color space : YUV
Audio #1
ID : 2
Format : AC-3
Format/Info : Audio Coding 3
Mode extension : CM (complete main)
Format settings, Endianness : Big
Codec ID : A_AC3
Duration : 2 h 14 min
Bit rate mode : Constant
Bit rate : 128 kb/s
Channel(s) : 6 channels
Channel positions : Front: L C R, Side: L R, LFE
Sampling rate : 48.0 kHz
Frame rate : 31.250 FPS (1536 spf)
Bit depth : 16 bits
Compression mode : Lossy
Stream size : 123 MiB (14%)
Title : Wild Tiger
Language : Hindi
Default : Yes
Forced : No

Audio #2
ID : 3
Format : AC-3
Format/Info : Audio Coding 3
Mode extension : CM (complete main)
Format settings, Endianness : Big
Codec ID : A_AC3
Duration : 2 h 14 min
Bit rate mode : Constant
Bit rate : 128 kb/s
Channel(s) : 6 channels
Channel positions : Front: L C R, Side: L R, LFE
Sampling rate : 48.0 kHz
Frame rate : 31.250 FPS (1536 spf)
Bit depth : 16 bits
Compression mode : Lossy
Stream size : 123 MiB (14%)
Title : Wild Tiger
Language : Hindi
Default : No
Forced : No
Text
ID : 4
Format : UTF-8
Codec ID : S_TEXT/UTF8
Codec ID/Info : UTF-8 Plain Text
Title : Wild Tiger
Language : English
Default : Yes
Forced : No








895.59 MB


توقيع : juleyano



التعديل الأخير تم بواسطة juleyano ; 28-08-2022 الساعة 09:38 PM
رد مع اقتباس
 
 رقم المشاركة : ( 2 )
abualloy
عضو جديد
رقم العضوية : 37893
تاريخ التسجيل : Feb 2019
مكان الإقامة :
عدد المشاركات : 17
عدد النقاط : 1
قوة التقييم : abualloy is an unknown quantity at this point
جهات الاتصال :

abualloy غير متواجد حالياً

   

افتراضي

كُتب : [ 14-02-2019 ]


شكررررررررررررررررررررررررا


رد مع اقتباس
 
 رقم المشاركة : ( 3 )
habib
عضو جديد
رقم العضوية : 38033
تاريخ التسجيل : Mar 2019
مكان الإقامة :
عدد المشاركات : 17
عدد النقاط : 1
قوة التقييم : habib is an unknown quantity at this point
جهات الاتصال :

habib غير متواجد حالياً

   

افتراضي

كُتب : [ 28-03-2019 ]


thanks


رد مع اقتباس
 
 رقم المشاركة : ( 4 )
ahmed bashir
عضو
رقم العضوية : 33375
تاريخ التسجيل : Dec 2016
مكان الإقامة :
عدد المشاركات : 84
عدد النقاط : 1
قوة التقييم : ahmed bashir is an unknown quantity at this point
جهات الاتصال :

ahmed bashir غير متواجد حالياً

   

افتراضي

كُتب : [ 06-04-2019 ]


ألف شكر عالمجهود ياريت ترجمة منفصلة


رد مع اقتباس
 
 رقم المشاركة : ( 5 )
Roz
عضو
رقم العضوية : 38846
تاريخ التسجيل : Jul 2019
مكان الإقامة :
عدد المشاركات : 36
عدد النقاط : 1
قوة التقييم : Roz is an unknown quantity at this point
جهات الاتصال :

Roz غير متواجد حالياً

   

افتراضي

كُتب : [ 21-02-2021 ]


Thanks


رد مع اقتباس
 
 رقم المشاركة : ( 6 )
palomono12
عضو نشيط
رقم العضوية : 40580
تاريخ التسجيل : Sep 2020
مكان الإقامة : lima peru
عدد المشاركات : 241
عدد النقاط : 1
قوة التقييم : palomono12 is an unknown quantity at this point
جهات الاتصال :

palomono12 غير متواجد حالياً

   

افتراضي

كُتب : [ 05-04-2021 ]


gracias


رد مع اقتباس
 
 رقم المشاركة : ( 7 )
orange
عضو نشيط
رقم العضوية : 33239
تاريخ التسجيل : Oct 2016
مكان الإقامة :
عدد المشاركات : 233
عدد النقاط : 1
قوة التقييم : orange is an unknown quantity at this point
جهات الاتصال :

orange غير متواجد حالياً

   

افتراضي

كُتب : [ 06-04-2021 ]


شكرا ع هذا العمل الرائع


رد مع اقتباس
 
 رقم المشاركة : ( 8 )
juleyano
Moderator
الصورة الرمزية juleyano
رقم العضوية : 32054
تاريخ التسجيل : Nov 2014
مكان الإقامة : Portugal
عدد المشاركات : 15,496
عدد النقاط : 1
قوة التقييم : juleyano is an unknown quantity at this point
جهات الاتصال :

juleyano غير متواجد حالياً

   

افتراضي

كُتب : [ 02-07-2021 ]


Jaagruti (1993) DvDRipx264.AC3.Esub.5.1.Wild Tiger [Team ExDR] BY juleyano


توقيع : juleyano


رد مع اقتباس
 
 رقم المشاركة : ( 9 )
saziz
عضو نشيط
رقم العضوية : 40306
تاريخ التسجيل : Jul 2020
مكان الإقامة :
عدد المشاركات : 174
عدد النقاط : 1
قوة التقييم : saziz is an unknown quantity at this point
جهات الاتصال :

saziz غير متواجد حالياً

   

افتراضي

كُتب : [ منذ 4 أسابيع ]


tnkxxxxxxxxxxxxxxxxx


رد مع اقتباس
إضافة رد

مواقع النشر (المفضلة)

الكلمات الدلالية (Tags)
1993, dvdripx264ac3esubwild, jaagruti, tigerbyjuleyano


الذين يشاهدون محتوى الموضوع الآن : 1 ( الأعضاء 0 والزوار 1)
 
أدوات الموضوع
انواع عرض الموضوع

تعليمات المشاركة
لا تستطيع إضافة مواضيع جديدة
لا تستطيع الرد على المواضيع
لا تستطيع إرفاق ملفات
لا تستطيع تعديل مشاركاتك

BB code is متاحة
كود [IMG] متاحة
كود HTML معطلة

الانتقال السريع


الساعة الآن 12:55 AM


Powered by vBulletin® Copyright ©2010 - 2023 Jelsoft Enterprises Ltd.
جميع ما ينشر من مواضيع و ردود تعبر عن رآي كاتبها فقط