العودة   :: EgyStars :: > المنتدي الفني > أفلام هندي > قسم مكتبات ابطال الافلام الهندية

إضافة رد
 
أدوات الموضوع انواع عرض الموضوع
 
 رقم المشاركة : ( 21 )
خالد صبرة
عضو نشيط
رقم العضوية : 32499
تاريخ التسجيل : May 2015
مكان الإقامة :
عدد المشاركات : 100
عدد النقاط : 1
قوة التقييم : خالد صبرة is an unknown quantity at this point
جهات الاتصال :

خالد صبرة غير متواجد حالياً

   

Syria Dil Aashna Hai 1992 Hindi DvDRip x264 AC3 5.1.Arabic.Esubs..Hon3y.BY.juleyano

كُتب : [ 07-05-2015 ]


Dil Aashna Hai 1992 Hindi DvDRip x264 AC3 5.1.Arabic.Esubs..Hon3y.BY.juleyano



Stars: Jeetendra, Mithun Chakraborty, Dimple Kapadia |
Amrita Singh,Shah Rukh Khan
Format : Matroska
Format version : Version 4 / Version 2
File size : 1.45 GiB
Duration : 2h 35mn
Overall bit rate : 1 337 Kbps
Encoded date : UTC 2013-11-26 1933
Video
ID : 1
Format : AVC
Format/Info : Advanced Video Codec
Format profile : High@L3.1
Format settings, CABAC : Yes
Format settings, ReFrames : 8 frames
Codec ID : V_MPEG4/ISO/AVC
Duration : 2h 35mn
Bit rate : 1 015 Kbps
Width : 720 pixels
Height : 320 pixels
Display aspect ratio : 2.25:1
Frame rate mode : Constant
Frame rate : 23.976 fps
Audio
ID : 2
Format : AC-3
Format/Info : Audio Coding 3
Mode extension : CM (complete main)
Format settings, Endianness : Big
Codec ID : A_AC3
Duration : 2h 35mn
Bit rate mode : Constant
Bit rate : 320 Kbps
Channel(s) : 6 channels
Channel positions : Front: L C R, Side: L R, LFE
Sampling rate : 48.0 KHz
Compression mode : Lossy







1.45 GB

OR

الترجمة العربية الاحترافية بالرابط التالي



التعديل الأخير تم بواسطة juleyano ; 06-07-2021 الساعة 12:24 PM

رد مع اقتباس
 
 رقم المشاركة : ( 22 )
خالدبدر
عضو
رقم العضوية : 32496
تاريخ التسجيل : May 2015
مكان الإقامة :
عدد المشاركات : 23
عدد النقاط : 1
قوة التقييم : خالدبدر is an unknown quantity at this point
جهات الاتصال :

خالدبدر غير متواجد حالياً

   

Syria Phir Bhi Dil Hai Hindustani 2000 Hindi DvDrip 720p x264 AC3 5.1.Arabic.E.Sub..Hon3y.BY.juleyano

كُتب : [ 19-05-2015 ]


Phir Bhi Dil Hai Hindustani 2000 Hindi DvDrip 720p x264 AC3 5.1.Arabic.E.Sub..Hon3y.BY.juleyano





Stars: Shah Rukh Khan, Juhi Chawla, Johnny Lever |
Format : Matroska
Format version : Version 2
File size : 2.19 GiB
Duration : 2 h 39 min
Overall bit rate : 1 968 kb/s
Encoded date : UTC 2013-08-17 1035
Video
ID : 1
Format : AVC
Format/Info : Advanced Video Codec
Format profile : High@L4.1
Format settings : CABAC / 8 Ref Frames
Format settings, CABAC : Yes
Format settings, RefFrames : 8 frames
Codec ID : V_MPEG4/ISO/AVC
Duration : 2 h 39 min
Bit rate : 1 518 kb/s
Width : 1 280 pixels
Height : 544 pixels
Display aspect ratio : 2.35:1
Frame rate mode : Constant
Frame rate : 23.976 (24000/1001) FPS
Color space : YUV
Audio
ID : 2
Format : AC-3
Format/Info : Audio Coding 3
Codec ID : A_AC3
Duration : 2 h 39 min
Bit rate mode : Constant
Bit rate : 448 kb/s
Channel(s) : 6 channels
Channel positions : Front: L C R, Side: L R, LFE
Sampling rate : 48.0 kHz
Frame rate : 31.250 FPS (1536 SPF)
Bit depth : 16 bits
Compression mode : Lossy








2.19 GB

الترجمة العربية الاحترافية بالرابط التالي



التعديل الأخير تم بواسطة juleyano ; 06-07-2021 الساعة 11:57 AM

رد مع اقتباس
 
 رقم المشاركة : ( 23 )
خالدبدر
عضو
رقم العضوية : 32496
تاريخ التسجيل : May 2015
مكان الإقامة :
عدد المشاركات : 23
عدد النقاط : 1
قوة التقييم : خالدبدر is an unknown quantity at this point
جهات الاتصال :

خالدبدر غير متواجد حالياً

   

Syria Anjaam (1994) DvDRip.XviD.MP3.Arabic.E.Sub [TMB].by.juleyano

كُتب : [ 19-05-2015 ]


Anjaam (1994) DvDRip.XviD.MP3.Arabic.E.Sub [TMB].by.juleyano

الف شكر للاخ عمر لتحميل الفلم



Stars: Madhuri Dixit, Shah Rukh Khan, Tinnu Anand |
Format : AVI
Format/Info : Audio Video Interleave
File size : 1.41 GiB
Duration : 2h 41mn
Overall bit rate mode : Variable
Overall bit rate : 1 250 Kbps
Video
ID : 0
Format : MPEG-4 Visual
Format profile : Advanced Simple@L5
Format settings, BVOP : 2
Format settings, QPel : No
Format settings, GMC : No warppoints
Format settings, Matrix : Default (H.263)
Codec ID : XVID
Codec ID/Hint : XviD
Duration : 2h 41mn
Bit rate : 1 126 Kbps
Width : 700 pixels
Height : 288 pixels
Display aspect ratio : 2.40:1
Frame rate : 25.000 fps
Audio
ID : 1
Format : MPEG Audio
Format version : Version 1
Format profile : Layer 3
Mode : Joint stereo
Mode extension : MS Stereo
Codec ID : 55
Codec ID/Hint : MP3
Duration : 2h 41mn
Bit rate mode : Variable
Bit rate : 112 Kbps
Nominal bit rate : 128 Kbps
Channel(s) : 2 channels
Sampling rate : 44.1 KHz
Compression mode : Lossy







1.4 GB

الترجمة العربية الاحترافية بالرابط التالي




التعديل الأخير تم بواسطة juleyano ; 15-07-2021 الساعة 10:27 AM

رد مع اقتباس
 
 رقم المشاركة : ( 24 )
ادهم بن ابراهيم
عضو سوير
الصورة الرمزية ادهم بن ابراهيم
رقم العضوية : 32437
تاريخ التسجيل : Mar 2015
مكان الإقامة :
عدد المشاركات : 1,696
عدد النقاط : 1
قوة التقييم : ادهم بن ابراهيم is an unknown quantity at this point
جهات الاتصال :

ادهم بن ابراهيم غير متواجد حالياً

   

افتراضي

كُتب : [ 19-05-2015 ]


شكرا علي المجهود الكبير اخي الغالي

تسلم ايديك

رد مع اقتباس
 
 رقم المشاركة : ( 25 )
amrkemo
عضو جديد
رقم العضوية : 32519
تاريخ التسجيل : May 2015
مكان الإقامة : https://t.me/pump_upp
عدد المشاركات : 6
عدد النقاط : 1
قوة التقييم : amrkemo is an unknown quantity at this point
جهات الاتصال :إرسال رسالة عبر ICQ إلى amrkemo إرسال رسالة عبر AIM إلى amrkemo إرسال رسالة عبر Yahoo إلى amrkemo

amrkemo غير متواجد حالياً

   

Syria One 2 Ka 4 (2001) WebRip 720p Netflix AAC 2.0 x264 Arabic.M-Subs - mkvCinemas [Telly] BY Juleyano

كُتب : [ 20-05-2015 ]


One 2 Ka 4 (2001) WebRip 720p Netflix AAC 2.0 x264
Arabic.M-Subs - mkvCinemas [Telly] BY Juleyano



Stars: Shah Rukh Khan, Jackie Shroff, Juhi Chawla
Format : Matroska
Format version : Version 4
File size : 1.32 GiB
Duration : 2 h 40 min
Overall bit rate mode : Variable
Overall bit rate : 1 181 kb/s
Video
ID : 1
Format : AVC
Format/Info : Advanced Video Codec
Format profile : High@L4.1
Format settings : CABAC / 7 Ref Frames
Format settings, CABAC : Yes
Format settings, Reference frames : 7 frames
Codec ID : V_MPEG4/ISO/AVC
Duration : 2 h 40 min
Bit rate mode : Variable
Bit rate : 1 050 kb/s
Maximum bit rate : 62.5 Mb/s
Width : 1 280 pixels
Height : 544 pixels
Display aspect ratio : 2.40:1
Original display aspect ratio : 2.40:1
Frame rate mode : Constant
Frame rate : 25.000 FPS
Color space : YUV
Audio
ID : 2
Format : AAC LC
Format/Info : Advanced Audio Codec Low Complexity
Codec ID : A_AAC-2
Duration : 2 h 40 min
Bit rate : 128 kb/s
Channel(s) : 2 channels
Channel layout : L R
Sampling rate : 48.0 kHz
Frame rate : 46.875 FPS (1024 SPF)
Compression mode : Lossy
Text #1
ID : 3
Format : UTF-8
Codec ID : S_TEXT/UTF8
Codec ID/Info : UTF-8 Plain Text
Duration : 2 h 38 min
Bit rate : 69 b/s
Count of elements : 2281
Stream size : 80.7 KiB (0%)
Title : English
Language : English
Default : Yes
Forced : No











1.32 GB

ترجمة مسحوبة من Netflix بالرابط التالي




التعديل الأخير تم بواسطة juleyano ; 24-12-2022 الساعة 11:04 AM

رد مع اقتباس
 
 رقم المشاركة : ( 26 )
samir_vip21
عضو
رقم العضوية : 32549
تاريخ التسجيل : May 2015
مكان الإقامة :
عدد المشاركات : 71
عدد النقاط : 1
قوة التقييم : samir_vip21 is an unknown quantity at this point
جهات الاتصال :

samir_vip21 غير متواجد حالياً

   

Syria Duplicate (1998) DvDRip 480p x264 AC3.Arabic.E.Sub.Hon3y.BY.juleyano

كُتب : [ 31-05-2015 ]


Duplicate (1998) DvDRip 480p x264 AC3.Arabic.E.Sub.Hon3y.BY.juleyano

الف شكر لاخي عمر لتحميل النسخة



Stars: Kajol, Shah Rukh Khan, Juhi Chawla |
Format : Matroska
Format version : Version 4 / Version 2
File size : 1.45 GiB
Duration : 2h 45mn
Overall bit rate : 1 258 Kbps
Encoded date : UTC 2015-01-27 0623
Video
ID : 1
Format : AVC
Format/Info : Advanced Video Codec
Format profile : High@L3.1
Format settings, CABAC : Yes
Format settings, ReFrames : 8 frames
Codec ID : V_MPEG4/ISO/AVC
Duration : 2h 45mn
Bit rate : 1 032 Kbps
Width : 720 pixels
Height : 344 pixels
Display aspect ratio : 2.093
Frame rate mode : Constant
Frame rate : 23.976 fps
Audio
ID : 2
Format : AC-3
Format/Info : Audio Coding 3
Format profile : Dolby Digital
Mode extension : CM (complete main)
Format settings, Endianness : Big
Codec ID : A_AC3
Duration : 2h 45mn
Bit rate mode : Constant
Bit rate : 224 Kbps
Channel(s) : 2 channels
Channel positions : Front: L R
Sampling rate : 48.0 KHz
Compression mode : Lossy







1.45GB




التعديل الأخير تم بواسطة juleyano ; 17-07-2021 الساعة 01:09 PM

رد مع اقتباس
 
 رقم المشاركة : ( 27 )
bleupulsar
عضو
رقم العضوية : 32607
تاريخ التسجيل : Jul 2015
مكان الإقامة :
عدد المشاركات : 47
عدد النقاط : 1
قوة التقييم : bleupulsar is an unknown quantity at this point
جهات الاتصال :

bleupulsar غير متواجد حالياً

   

Syria Chalte Chalte 2003 BluRay 720p Hindi AAC 5.1 x264 Arabic.ESub- mkvCinemas [Telly] BY Juleyano

كُتب : [ 08-07-2015 ]


Chalte Chalte 2003 BluRay 720p Hindi AAC 5.1 x264
Arabic.ESub- mkvCinemas [Telly] BY Juleyano



Stars: Shah Rukh Khan, Rani Mukerji, Jas Arora |
Format : Matroska
Format version : Version 2
File size : 1.44 GiB
Duration : 2 h 45 min
Overall bit rate mode : Variable
Overall bit rate : 1 243 kb/s
Video
ID : 1
Format : AVC
Format/Info : Advanced Video Codec
Format profile : High@L4.1
Format settings : CABAC / 7 Ref Frames
Format settings, CABAC : Yes
Format settings, Reference frames : 7 frames
Muxing mode : Header stripping
Codec ID : V_MPEG4/ISO/AVC
Duration : 2 h 45 min
Bit rate mode : Variable
Nominal bit rate : 1 050 kb/s
Maximum bit rate : 62.5 Mb/s
Width : 1 280 pixels
Height : 544 pixels
Display aspect ratio : 2.35:1
Frame rate mode : Constant
Frame rate : 23.976 (24000/1001) FPS
Color space : YUV
Audio
ID : 2
Format : AAC LC
Format/Info : Advanced Audio Codec Low Complexity
Codec ID : A_AAC-2
Duration : 2 h 45 min
Channel(s) : 6 channels
Channel layout : C L R Ls Rs LFE
Sampling rate : 48.0 kHz
Frame rate : 46.875 FPS (1024 SPF)
Compression mode : Lossy
Menu
00:00:00.083 : en:Chapter 01
00:02:26.729 : en:Chapter 02









1.44 GB

ترجمة مسحوبة من �������������� بالرابط التالي




التعديل الأخير تم بواسطة juleyano ; 19-07-2021 الساعة 05:20 PM

رد مع اقتباس
 
 رقم المشاركة : ( 28 )
bleupulsar
عضو
رقم العضوية : 32607
تاريخ التسجيل : Jul 2015
مكان الإقامة :
عدد المشاركات : 47
عدد النقاط : 1
قوة التقييم : bleupulsar is an unknown quantity at this point
جهات الاتصال :

bleupulsar غير متواجد حالياً

   

Syria Chamatkar 1992 WebRip 720p Hindi AAC 2.0 x264 Arabic.ESub- mkvCinemas [Telly] BY Juleyano

كُتب : [ 08-07-2015 ]


Chamatkar 1992 WebRip 720p Hindi AAC 2.0 x264
Arabic.ESub- mkvCinemas [Telly] BY Juleyano



Stars: Naseeruddin Shah, Shah Rukh Khan, Urmila
Matondkar |
Format : Matroska
Format version : Version 4
File size : 1.35 GiB
Duration : 2 h 43 min
Overall bit rate mode : Variable
Overall bit rate : 1 180 kb/s
Video
ID : 1
Format : AVC
Format/Info : Advanced Video Codec
Format profile : High@L4.1
Format settings : CABAC / 7 Ref Frames
Format settings, CABAC : Yes
Format settings, Reference frames : 7 frames
Codec ID : V_MPEG4/ISO/AVC
Duration : 2 h 43 min
Bit rate mode : Variable
Bit rate : 1 050 kb/s
Maximum bit rate : 62.5 Mb/s
Width : 1 280 pixels
Height : 544 pixels
Display aspect ratio : 2.35:1
Original display aspect ratio : 2.35:1
Frame rate mode : Constant
Frame rate : 25.000 FPS
Color space : YUV
Audio
ID : 2
Format : AAC LC
Format/Info : Advanced Audio Codec Low Complexity
Codec ID : A_AAC-2
Duration : 2 h 43 min
Bit rate : 128 kb/s
Channel(s) : 2 channels
Channel layout : L R
Sampling rate : 48.0 kHz
Frame rate : 46.875 FPS (1024 SPF)
Compression mode : Lossy
Text #2
ID : 4
Format : UTF-8
Codec ID : S_TEXT/UTF8
Codec ID/Info : UTF-8 Plain Text
Duration : 2 h 39 min
Bit rate : 80 b/s
Count of elements : 2347
Stream size : 94.1 KiB (0%)
Title : English_Full
Language : English
Default : Yes
Forced : No










1.35 GB




التعديل الأخير تم بواسطة juleyano ; 17-07-2021 الساعة 01:06 PM

رد مع اقتباس
 
 رقم المشاركة : ( 29 )
commandar
عضو
رقم العضوية : 32672
تاريخ التسجيل : Aug 2015
مكان الإقامة :
عدد المشاركات : 31
عدد النقاط : 1
قوة التقييم : commandar is an unknown quantity at this point
جهات الاتصال :

commandar غير متواجد حالياً

   

Syria Dil To Pagal Hai 1997 BluRay 720p Hindi AAC 5.1 x264 Arabic.ESub - mkvCinemas [Telly] BY juleyano

كُتب : [ 24-08-2015 ]


Dil To Pagal Hai 1997 BluRay 720p Hindi AAC 5.1
x264 Arabic.ESub - mkvCinemas [Telly] BY juleyano



Stars: Shah Rukh Khan, Madhuri Dixit, Karisma

Kapoor |
Format : Matroska
Format version : Version 2
File size : 1.56 GiB
Duration : 2 h 59 min
Overall bit rate mode : Variable
Overall bit rate : 1 243 kb/s
Video
ID : 1
Format : AVC
Format/Info : Advanced Video Codec
Format profile : High@L4.1
Format settings : CABAC / 7 Ref Frames
Format settings, CABAC : Yes
Format settings, Reference frames : 7 frames
Muxing mode : Header stripping
Codec ID : V_MPEG4/ISO/AVC
Duration : 2 h 59 min
Bit rate mode : Variable
Nominal bit rate : 1 050 kb/s
Maximum bit rate : 62.5 Mb/s
Width : 1 280 pixels
Height : 544 pixels
Display aspect ratio : 2.35:1
Original display aspect ratio : 2.35:1
Frame rate mode : Constant
Frame rate : 24.000 FPS
Color space : YUV
Audio
ID : 2
Format : AAC LC
Format/Info : Advanced Audio Codec Low Complexity
Codec ID : A_AAC-2
Duration : 2 h 59 min
Channel(s) : 6 channels
Channel layout : C L R Ls Rs LFE
Sampling rate : 48.0 kHz
Frame rate : 46.875 FPS (1024 SPF)
Compression mode : Lossy
Text
ID : 3
Format : UTF-8
Codec ID : S_TEXT/UTF8
Codec ID/Info : UTF-8 Plain Text
Title : mkvCinemas
Language : English
Default : Yes
Forced : No
Menu
00:00:00.000 : en:00:00:00.000
00:04:05.167 : en:00:04:05.167
0058.958 : en:0058.958










1.56 GB

الترجمة العربية الاحترافية بالرابط التالي




التعديل الأخير تم بواسطة juleyano ; 17-07-2021 الساعة 12:33 PM

رد مع اقتباس
 
 رقم المشاركة : ( 30 )
شمس الامل
عضو نشيط
رقم العضوية : 29463
تاريخ التسجيل : May 2013
مكان الإقامة :
عدد المشاركات : 114
عدد النقاط : 1
قوة التقييم : شمس الامل is an unknown quantity at this point
جهات الاتصال :

شمس الامل غير متواجد حالياً

   

Syria Zamaana Deewana 1995 Hindi 720p DvDRip X264 AC3 Arabic.ESubs- Hon3y.BY juleyano

كُتب : [ 03-10-2015 ]


Zamaana Deewana 1995 Hindi 720p DvDRip X264 AC3 Arabic.ESubs- Hon3y.BY juleyano



Stars: Jeetendra, Shatrughan Sinha, Shah Rukh
Khan |
Format : Matroska
Format version : Version 4
File size : 3.04 GiB
Duration : 2 h 57 min
Overall bit rate : 2 446 kb/s
Video
ID : 1
Format : AVC
Format/Info : Advanced Video Codec
Format profile : High@L4.1
Format settings : CABAC / 11 Ref Frames
Format settings, CABAC : Yes
Format settings, Reference frames : 11 frames
Codec ID : V_MPEG4/ISO/AVC
Duration : 2 h 57 min
Bit rate : 2 220 kb/s
Width : 1 280 pixels
Height : 576 pixels
Display aspect ratio : 2.222
Frame rate mode : Constant
Frame rate : 23.976 (24000/1001) FPS
Color space : YUV
Audio
ID : 2
Format : AC-3
Format/Info : Audio Coding 3
Commercial name : Dolby Digital
Codec ID : A_AC3
Duration : 2 h 57 min
Bit rate mode : Constant
Bit rate : 192 kb/s
Channel(s) : 2 channels
Channel layout : L R
Sampling rate : 48.0 kHz
Frame rate : 31.250 FPS (1536 SPF)
Compression mode : Lossy
Text
ID : 3
Format : UTF-8
Codec ID : S_TEXT/UTF8
Codec ID/Info : UTF-8 Plain Text
Duration : 2 h 52 min
Bit rate : 42 b/s
Count of elements : 1292
Stream size : 53.7 KiB (0%)
Language : Slovak
Default : Yes
Forced : No








3.04 GB

الترجمة العربية الاحترافية بالرابط التالي




التعديل الأخير تم بواسطة juleyano ; 12-07-2021 الساعة 02:07 PM

رد مع اقتباس
إضافة رد

مواقع النشر (المفضلة)

الكلمات الدلالية (Tags)
1995, لأفلام, أصلية, مكتبة, مكتبة جوليانو لأفلام عملاق الهند دارمندرا نسخ اصلية, نسخ, الهند, الهندية, السينما, اصلية, افلام, dvd, dvdrip, جوليانو, خان, دارامندرا, jaane, khanna, ram, عملاق, vinod, x264ac3arabicesubschaptersbyjuleyano, فينود


الذين يشاهدون محتوى الموضوع الآن : 1 ( الأعضاء 0 والزوار 1)
 
أدوات الموضوع
انواع عرض الموضوع

تعليمات المشاركة
لا تستطيع إضافة مواضيع جديدة
لا تستطيع الرد على المواضيع
لا تستطيع إرفاق ملفات
لا تستطيع تعديل مشاركاتك

BB code is متاحة
كود [IMG] متاحة
كود HTML معطلة

الانتقال السريع


الساعة الآن 10:30 PM


Powered by vBulletin® Copyright ©2010 - 2023 Jelsoft Enterprises Ltd.
جميع ما ينشر من مواضيع و ردود تعبر عن رآي كاتبها فقط