العودة   :: EgyStars :: > المنتدي الفني > أفلام هندي > قسم الأفلام الهندي المترجمة

إضافة رد
 
أدوات الموضوع انواع عرض الموضوع
 
 رقم المشاركة : ( 11 )
نهي
عضو
رقم العضوية : 36033
تاريخ التسجيل : Mar 2018
مكان الإقامة :
عدد المشاركات : 33
عدد النقاط : 1
قوة التقييم : نهي is an unknown quantity at this point
جهات الاتصال :

نهي غير متواجد حالياً

   

افتراضي

كُتب : [ 04-04-2018 ]


شكرا علي المجهود...


رد مع اقتباس
 
 رقم المشاركة : ( 12 )
kingkamal
عضو نشيط
رقم العضوية : 33635
تاريخ التسجيل : Mar 2017
مكان الإقامة :
عدد المشاركات : 147
عدد النقاط : 1
قوة التقييم : kingkamal is an unknown quantity at this point
جهات الاتصال :

kingkamal غير متواجد حالياً

   

افتراضي

كُتب : [ 15-04-2018 ]


ألف شكر


رد مع اقتباس
 
 رقم المشاركة : ( 13 )
نجلاء
عضو جديد
رقم العضوية : 35165
تاريخ التسجيل : Dec 2017
مكان الإقامة :
عدد المشاركات : 27
عدد النقاط : 1
قوة التقييم : نجلاء is an unknown quantity at this point
جهات الاتصال :

نجلاء غير متواجد حالياً

   

افتراضي

كُتب : [ 30-04-2018 ]


ثانكيييييييييييييييييييييييييييييييييييييييييييييي ييو


رد مع اقتباس
 
 رقم المشاركة : ( 14 )
Blackstar
عضو جديد
رقم العضوية : 33934
تاريخ التسجيل : May 2017
مكان الإقامة :
عدد المشاركات : 10
عدد النقاط : 1
قوة التقييم : Blackstar is an unknown quantity at this point
جهات الاتصال :

Blackstar غير متواجد حالياً

   

افتراضي

كُتب : [ 03-05-2018 ]


very good


رد مع اقتباس
 
 رقم المشاركة : ( 15 )
mycousin4ever
عضو جديد
رقم العضوية : 36077
تاريخ التسجيل : Mar 2018
مكان الإقامة :
عدد المشاركات : 17
عدد النقاط : 1
قوة التقييم : mycousin4ever is an unknown quantity at this point
جهات الاتصال :

mycousin4ever غير متواجد حالياً

   

افتراضي

كُتب : [ 06-10-2018 ]


مشكور


رد مع اقتباس
 
 رقم المشاركة : ( 16 )
said2014
عضو جديد
رقم العضوية : 37662
تاريخ التسجيل : Dec 2018
مكان الإقامة :
عدد المشاركات : 14
عدد النقاط : 1
قوة التقييم : said2014 is an unknown quantity at this point
جهات الاتصال :

said2014 غير متواجد حالياً

   

افتراضي

كُتب : [ 01-01-2019 ]


ألف شكر


رد مع اقتباس
 
 رقم المشاركة : ( 17 )
jamalchantouf
عضو جديد
رقم العضوية : 37679
تاريخ التسجيل : Jan 2019
مكان الإقامة :
عدد المشاركات : 19
عدد النقاط : 1
قوة التقييم : jamalchantouf is an unknown quantity at this point
جهات الاتصال :

jamalchantouf غير متواجد حالياً

   

افتراضي

كُتب : [ 02-01-2019 ]


شكرا جزيلا لك أتمنى منك أن ترفع الفلم الهندي نور العين ولك خالص تحياتي


رد مع اقتباس
 
 رقم المشاركة : ( 18 )
mohamed390
عضو نشيط
رقم العضوية : 32341
تاريخ التسجيل : Feb 2015
مكان الإقامة :
عدد المشاركات : 206
عدد النقاط : 1
قوة التقييم : mohamed390 is an unknown quantity at this point
جهات الاتصال :

mohamed390 غير متواجد حالياً

   

افتراضي

كُتب : [ 27-02-2019 ]


movies


رد مع اقتباس
 
 رقم المشاركة : ( 19 )
حودة الزملكاوي
عضو جديد
رقم العضوية : 38535
تاريخ التسجيل : Jun 2019
مكان الإقامة :
عدد المشاركات : 3
عدد النقاط : 1
قوة التقييم : حودة الزملكاوي is an unknown quantity at this point
جهات الاتصال :

حودة الزملكاوي غير متواجد حالياً

   

افتراضي

كُتب : [ 09-06-2019 ]


مشكووووووووووووووووور


رد مع اقتباس
 
 رقم المشاركة : ( 20 )
hossam.maher
عضو جديد
رقم العضوية : 38618
تاريخ التسجيل : Jun 2019
مكان الإقامة :
عدد المشاركات : 11
عدد النقاط : 1
قوة التقييم : hossam.maher is an unknown quantity at this point
جهات الاتصال :

hossam.maher غير متواجد حالياً

   

افتراضي

كُتب : [ 22-06-2019 ]



المشاركة الأصلية كتبت بواسطة nemr23







فيلم الأكشن الخيالى

Mr India 1987
(أستاذ الهند)


بطولة
أنيل كابور
سريديفى
أمريش بورى

ألف شكر للمترجم الكبير
شريف وهبة

قصة الفيلم
فى أطار خيالى تدور الأحداث حول موجيمبو (أمريش بورى) زعيم منظمة أرهابية تسعى للسيطرة
على الهند بنشر تجارة المخدرات والسلاح فى البلاد ويتصدى له أرون (أنيل كابور) بواسطة
تركيبة علمية أختراعها والده العالم الشهير والتى تؤدى لأختفاء من يستخدمها
ويسمى نفسه أستاذ الهند حتى يتمكن من تحطيم المنظمة دون أن يعرف أحد شخصيته الحقيقية


نسخة مترجمة 1080p BluRay بمساحة 4.58 جيجا







General
Mr India 1987 - 1080p BluRay x264 DTS-HDMA.by.nemt23.mp4
Format : MPEG-4
Format profile : Base Media
Codec ID : isom
File size : 4.58 GiB
Duration : 2h 58mn
Overall bit rate mode : Variable
Overall bit rate : 3 670 Kbps
Writing application : Lavf52.84.0

Video
ID : 1
Format : MPEG-4 Visual
Format profile : Simple@L3
Format settings, BVOP : No
Format settings, QPel : No
Format settings, GMC : No warppoints
Format settings, Matrix : Default (H.263)
Codec ID : 20
Duration : 2h 58mn
Bit rate : 3 502 Kbps
Width : 1 920 pixels
Height : 816 pixels
Display aspect ratio : 2.35:1
Frame rate mode : Constant
Frame rate : 24.000 fps
Color space : YUV
Chroma subsampling : 40
Bit depth : 8 bits
Scan type : Progressive
Compression mode : Lossy
Bits/(Pixel*Frame) : 0.093
Stream size : 4.37 GiB (95%)
Writing library : ZJMedia MPEG Encoder

Audio
ID : 2
Format : AAC
Format/Info : Advanced Audio Codec
Format profile : LC
Codec ID : 40
Duration : 2h 58mn
Bit rate mode : Variable
Bit rate : 159 Kbps
Channel count : 2 channels
Channel positions : Front: L R
Sampling rate : 48.0 KHz
Compression mode : Lossy
Stream size : 204 MiB (4%)










او



رابط المشاهدة

او







شككككككككككككككككككرا

رد مع اقتباس
إضافة رد

مواقع النشر (المفضلة)

الكلمات الدلالية (Tags)
1080p, 1987, أنيل, مترجم, ومشاهدة, وسريديفى, bluray, تحميل, india, mr, كابور


الذين يشاهدون محتوى الموضوع الآن : 1 ( الأعضاء 0 والزوار 1)
 
أدوات الموضوع
انواع عرض الموضوع

تعليمات المشاركة
لا تستطيع إضافة مواضيع جديدة
لا تستطيع الرد على المواضيع
لا تستطيع إرفاق ملفات
لا تستطيع تعديل مشاركاتك

BB code is متاحة
كود [IMG] متاحة
كود HTML معطلة

الانتقال السريع


الساعة الآن 08:28 PM


Powered by vBulletin® Copyright ©2010 - 2019 Jelsoft Enterprises Ltd.
جميع ما ينشر من مواضيع و ردود تعبر عن رآي كاتبها فقط