العودة   :: EgyStars :: > المنتدي الفني > أفلام هندي > قسم الأفلام الهندي المترجمة

إضافة رد
 
أدوات الموضوع انواع عرض الموضوع
رقم المشاركة : ( 1 )
الصورة الرمزية nemr23
 
nemr23
Super Moderator

nemr23 غير متواجد حالياً

       
رقم العضوية : 23269
تاريخ التسجيل : Sep 2012
مكان الإقامة :
عدد المشاركات : 645
عدد النقاط : 1
قوة التقييم : nemr23 is an unknown quantity at this point
جهات الاتصال : إرسال رسالة عبر Yahoo إلى nemr23
movies JAB TAK HAI JAAN.2012 مترجم tv شاروخ خان وكاترينا كيف تحميل ومشاهدة

كُتب : [ 21-04-2018 ]









الفيلم الرومانسى الرائع

JAB TAK HAI JAAN.2012
(طالما انا حي)

بطولة
شاروخ خان
كاترينا كيف
أنوشكا شارما


نسخة مترجمة مسجلة من mbc بوليوود غير مضغوطة بمساحة 2.50 جيجا




General
JAB TAK HAI JAAN.2012.tv.by.nemr23.mkv
Format : Matroska
Format version : Version 2
File size : 2.50 GiB
Duration : 2h 46mn
Overall bit rate mode : Variable
Overall bit rate : 2 147 Kbps
Writing application : Lavf54.63.104
Writing library : Lavf54.63.104

Video
ID : 1
Format : MPEG Video
Format version : Version 2
Format profile : Main@Main
Format settings, BVOP : Yes
Format settings, Matrix : Custom
Format settings, GOP : M=3, N=12
Format settings, picture st : Frame
Codec ID : V_MPEG2
Codec ID/Info : MPEG 1 or 2 Video
Duration : 2h 46mn
Bit rate mode : Variable
Bit rate : 1 976 Kbps
Maximum bit rate : 15.0 Mbps
Width : 720 pixels
Height : 576 pixels
Display aspect ratio : 16:9
Original display aspect rat : 16:9
Frame rate mode : Constant
Frame rate : 25.000 fps
Standard : PAL
Color space : YUV
Chroma subsampling : 40
Bit depth : 8 bits
Scan type : Interlaced
Scan order : Top Field First
Compression mode : Lossy
Bits/(Pixel*Frame) : 0.191
Stream size : 2.30 GiB (92%)
Default : No
Forced : No

Audio
ID : 2
Format : MPEG Audio
Format version : Version 1
Format profile : Layer 2
Codec ID : A_MPEG/L2
Codec ID/Hint : MP2
Duration : 2h 46mn
Bit rate mode : Constant
Bit rate : 128 Kbps
Channel(s) : 2 channels
Sampling rate : 48.0 KHz
Compression mode : Lossy
Delay relative to video : -18ms
Stream size : 153 MiB (6%)
Language : English
Default : Yes
Forced : No









نسخة صغيرة



رابط المشاهدة


أو




توقيع : nemr23

بعتذر للجميع على حذف الروابط وعن عدم تجديدها لظروفى الصحية
جارى اعادة الرفع




للتواصل على الفيسبوك

‏رابطة محبى الأسطورة أميتاب بتشان‏
https://www.facebook.com/Amitabhamitab/

رد مع اقتباس
 
 رقم المشاركة : ( 2 )
الكينج اسلام
عضو نشيط
رقم العضوية : 32193
تاريخ التسجيل : Dec 2014
مكان الإقامة :
عدد المشاركات : 192
عدد النقاط : 1
قوة التقييم : الكينج اسلام is an unknown quantity at this point
جهات الاتصال :

الكينج اسلام غير متواجد حالياً

   

افتراضي

كُتب : [ 14-07-2018 ]


إبداع وفيلم رائع يستحق المشاهدة بالجودة الخرافية دى


رد مع اقتباس
 
 رقم المشاركة : ( 3 )
الكينج اسلام
عضو نشيط
رقم العضوية : 32193
تاريخ التسجيل : Dec 2014
مكان الإقامة :
عدد المشاركات : 192
عدد النقاط : 1
قوة التقييم : الكينج اسلام is an unknown quantity at this point
جهات الاتصال :

الكينج اسلام غير متواجد حالياً

   

افتراضي

كُتب : [ 14-07-2018 ]


للأسف روابط الفيلم غير صالحة أرجو إعادة الرفع مرة أخرى على أكثر من رابط لسهولة التحميل وشكرا


رد مع اقتباس
 
 رقم المشاركة : ( 4 )
الكينج اسلام
عضو نشيط
رقم العضوية : 32193
تاريخ التسجيل : Dec 2014
مكان الإقامة :
عدد المشاركات : 192
عدد النقاط : 1
قوة التقييم : الكينج اسلام is an unknown quantity at this point
جهات الاتصال :

الكينج اسلام غير متواجد حالياً

   

افتراضي

كُتب : [ 21-05-2019 ]


أرجو اعادة رفع نفس النسخة مرة اخرى


رد مع اقتباس
إضافة رد

مواقع النشر (المفضلة)

الكلمات الدلالية (Tags)
مترجم, ومشاهدة, وكاترينا, تحميل, hai, خان, jaan2012, jab, شاروخ, كيف, tak, tv


الذين يشاهدون محتوى الموضوع الآن : 1 ( الأعضاء 0 والزوار 1)
 
أدوات الموضوع
انواع عرض الموضوع

تعليمات المشاركة
لا تستطيع إضافة مواضيع جديدة
لا تستطيع الرد على المواضيع
لا تستطيع إرفاق ملفات
لا تستطيع تعديل مشاركاتك

BB code is متاحة
كود [IMG] متاحة
كود HTML معطلة

الانتقال السريع


الساعة الآن 07:31 AM


Powered by vBulletin® Copyright ©2010 - 2019 Jelsoft Enterprises Ltd.
جميع ما ينشر من مواضيع و ردود تعبر عن رآي كاتبها فقط