العودة   :: EgyStars :: > المنتدي الفني > أفلام هندي > قسم مكتبات ابطال الافلام الهندية

موضوع مغلق
 
أدوات الموضوع انواع عرض الموضوع
 
 رقم المشاركة : ( 521 )
elgokar_gamal
عضو نشيط
رقم العضوية : 30802
تاريخ التسجيل : Oct 2013
مكان الإقامة :
عدد المشاركات : 489
عدد النقاط : 1
قوة التقييم : elgokar_gamal is an unknown quantity at this point
جهات الاتصال :

elgokar_gamal غير متواجد حالياً

   

افتراضي

كُتب : [ 10-06-2015 ]


Pagla Kahin Ka (1970)
Hindi.WebRip.AC3x264.Arabic.ESubs.BY Juleyano



Stars
Shammi Kapoor,Asha Parekh,Prem Chopra
Format : Matroska
Format version : Version 2
File size : 1.45 GiB
Duration : 2 h 19 min
Overall bit rate : 1 486 kb/s
Video
ID : 1
Format : AVC
Format/Info : Advanced Video Codec
Format profile : High@L3
Format settings : CABAC / 4 Ref Frames
Format settings, CABAC : Yes
Format settings, Reference frames : 4 frames
Codec ID : V_MPEG4/ISO/AVC
Duration : 2 h 19 min
Bit rate : 1 100 kb/s
Width : 720 pixels
Height : 512 pixels
Display aspect ratio : 1.406
Frame rate mode : Constant
Frame rate : 25.000 FPS
Color space : YUV
Audio
ID : 2
Format : AC-3
Format/Info : Audio Coding 3
Commercial name : Dolby Digital
Codec ID : A_AC3
Duration : 2 h 19 min
Bit rate mode : Constant
Bit rate : 384 kb/s
Channel(s) : 2 channels
Channel layout : L R
Sampling rate : 48.0 kHz
Frame rate : 31.250 FPS (1536 SPF)
Compression mode : Lossy
Text #1
ID : 3
Format : UTF-8
Codec ID : S_TEXT/UTF8
Codec ID/Info : UTF-8 Plain Text
Duration : 2 h 16 min
Bit rate : 58 b/s
Count of elements : 1713
Stream size : 58.1 KiB (0%)
Language : English
Default : Yes
Forced : No










1.45 GB

الترجمة العربية الاحترافية بالرابط التالي




التعديل الأخير تم بواسطة juleyano ; 07-12-2021 الساعة 02:38 PM

 
 رقم المشاركة : ( 522 )
mohsen74
Moderator
الصورة الرمزية mohsen74
رقم العضوية : 32052
تاريخ التسجيل : Nov 2014
مكان الإقامة :
عدد المشاركات : 1,787
عدد النقاط : 1
قوة التقييم : mohsen74 is an unknown quantity at this point
جهات الاتصال :

mohsen74 غير متواجد حالياً

   

افتراضي

كُتب : [ 10-06-2015 ]


مشكور جوليانو على النسخة الرائعة
دمت بود


 
 رقم المشاركة : ( 523 )
mohamed390
عضو نشيط
رقم العضوية : 32341
تاريخ التسجيل : Feb 2015
مكان الإقامة :
عدد المشاركات : 185
عدد النقاط : 1
قوة التقييم : mohamed390 is an unknown quantity at this point
جهات الاتصال :

mohamed390 غير متواجد حالياً

   

movies

كُتب : [ 11-06-2015 ]


Naukri (1978) DvDrip X264.AAC.ng.Sub.5.1.By.Juleyano



Stars: Rajesh Khanna, Zaheera, Raj Kapoor |
Was DVD5 NOT so good
Format : Matroska
Format version : Version 4
File size : 1.20 GiB
Duration : 2 h 0 min
Overall bit rate : 1 422 kb/s
Video
ID : 1
Format : AVC
Format/Info : Advanced Video Codec
Format profile : High@L4.1
Format settings : CABAC / 4 Ref Frames
Format settings, CABAC : Yes
Format settings, Reference frames : 4 frames
Codec ID : V_MPEG4/ISO/AVC
Duration : 2 h 0 min
Nominal bit rate : 1 200 kb/s
Width : 640 pixels
Height : 496 pixels
Display aspect ratio : 1.290
Frame rate mode : Constant
Frame rate : 25.000 FPS
Color space : YUV
Audio
ID : 2
Format : AAC LC
Format/Info : Advanced Audio Codec Low Complexity
Codec ID : A_AAC-2
Duration : 2 h 0 min
Channel(s) : 6 channels
Channel layout : C L R Ls Rs LFE
Sampling rate : 48.0 kHz
Frame rate : 46.875 FPS (1024 SPF)
Compression mode : Lossy
Text
ID : 3
Format : ASS
Codec ID : S_TEXT/ASS
Codec ID/Info : Advanced Sub Station Alpha
Duration : 1 h 59 min
Compression mode : Lossless
Title : juleyano movies
Language : English
Default : Yes
Forced : Yes








1.20 GB

OR





التعديل الأخير تم بواسطة juleyano ; 07-12-2021 الساعة 02:39 PM

 
 رقم المشاركة : ( 524 )
nemr23
Super Moderator
الصورة الرمزية nemr23
رقم العضوية : 23269
تاريخ التسجيل : Sep 2012
مكان الإقامة :
عدد المشاركات : 527
عدد النقاط : 1
قوة التقييم : nemr23 is an unknown quantity at this point
جهات الاتصال : إرسال رسالة عبر Yahoo إلى nemr23

nemr23 غير متواجد حالياً

   

افتراضي

كُتب : [ 11-06-2015 ]


الف شكر يا ملك الابلودر على الفيلم النادر والترجمة والشكر موصول للمترجم


توقيع : nemr23

بعتذر للجميع على حذف الروابط وعن عدم تجديدها لظروفى الصحية
جارى اعادة الرفع




للتواصل على الفيسبوك

‏رابطة محبى الأسطورة أميتاب بتشان‏
https://www.facebook.com/Amitabhamitab/

 
 رقم المشاركة : ( 525 )
ادهم بن ابراهيم
عضو سوير
الصورة الرمزية ادهم بن ابراهيم
رقم العضوية : 32437
تاريخ التسجيل : Mar 2015
مكان الإقامة :
عدد المشاركات : 1,696
عدد النقاط : 1
قوة التقييم : ادهم بن ابراهيم is an unknown quantity at this point
جهات الاتصال :

ادهم بن ابراهيم غير متواجد حالياً

   

افتراضي

كُتب : [ 12-06-2015 ]


سطور نالت الإعجاب برقي هذا الطرح
وهذا سَّــر إبداعك وذائقتك المُتميزه
سوف آظل أترقب الجديد بكل شوق
لك كل الود والاحترام


 
 رقم المشاركة : ( 526 )
زهرة الياسمين
عضو ممتاز
الصورة الرمزية زهرة الياسمين
رقم العضوية : 32126
تاريخ التسجيل : Dec 2014
مكان الإقامة : فلسطين __ غزة
عدد المشاركات : 773
عدد النقاط : 21
قوة التقييم : زهرة الياسمين is on a distinguished road
جهات الاتصال :

زهرة الياسمين غير متواجد حالياً

   

افتراضي

كُتب : [ 20-06-2015 ]


Saajan Bina Suhagan (1978) NTSC.DvDRipx264.Mp3 Esub .By juleyano



Um Amor que nمo Morreu (1978)
Stars: Nutan, Vinod Mehra,Rajendra Kumar, Shreeram Lagoo |
Format : Matroska
Format version : Version 4 / Version 2
File size : 1.45 GiB
Duration : 2h 17mn
Overall bit rate : 1 512 Kbps
Encoded date : UTC 2015-03-28 18:48:10
Video
ID : 1
Format : AVC
Format/Info : Advanced Video Codec
Format profile : High@L3.1
Format settings, CABAC : Yes
Format settings, ReFrames : 13 frames
Codec ID : V_MPEG4/ISO/AVC
Duration : 2h 17mn
Bit rate : 1 290 Kbps
Width : 720 pixels
Height : 480 pixels
Display aspect ratio : 4:3
Frame rate mode : Constant
Frame rate : 23.976 fps
Audio
ID : 2
Format : MPEG Audio
Format version : Version 1
Format profile : Layer 3
Mode : Joint stereo
Mode extension : MS Stereo
Codec ID : A_MPEG/L3
Codec ID/Hint : MP3
Duration : 2h 17mn
Bit rate mode : Constant
Bit rate : 192 Kbps
Channel(s) : 2 channels
Sampling rate : 48.0 KHz
Compression mode : Lossy
Text
ID : 3
Format : UTF-8
Codec ID : S_TEXT/UTF8
Codec ID/Info : UTF-8 Plain Text
Default : Yes
Forced : No







1.45 GB



توقيع : زهرة الياسمين

صلي علي النبي :)

التعديل الأخير تم بواسطة juleyano ; 07-12-2021 الساعة 02:40 PM

 
 رقم المشاركة : ( 527 )
commandoo
عضو نشيط
الصورة الرمزية commandoo
رقم العضوية : 17546
تاريخ التسجيل : May 2012
مكان الإقامة :
عدد المشاركات : 170
عدد النقاط : 1
قوة التقييم : commandoo is an unknown quantity at this point
جهات الاتصال : إرسال رسالة عبر Yahoo إلى commandoo

commandoo غير متواجد حالياً

   

افتراضي

كُتب : [ 22-06-2015 ]


تسلم ياغالي والشكر للمترجم رمضان كريم عليكم


 
 رقم المشاركة : ( 528 )
meto500
عضو جديد
رقم العضوية : 20888
تاريخ التسجيل : Jul 2012
مكان الإقامة :
عدد المشاركات : 4
عدد النقاط : 1
قوة التقييم : meto500 is an unknown quantity at this point
جهات الاتصال :

meto500 غير متواجد حالياً

   

افتراضي

كُتب : [ 27-06-2015 ]


thank you very much


 
 رقم المشاركة : ( 529 )
bleupulsar
عضو
رقم العضوية : 32607
تاريخ التسجيل : Jul 2015
مكان الإقامة :
عدد المشاركات : 38
عدد النقاط : 1
قوة التقييم : bleupulsar is an unknown quantity at this point
جهات الاتصال :

bleupulsar غير متواجد حالياً

   

افتراضي

كُتب : [ 08-07-2015 ]


Khoon Khoon (1973) DvDRipx264.AC3..E.Sub.BY.juleyano


Stars: Mahendra Sandhu, Danny Denzongpa, Jagdeep |

Format : Matroska
Format version : Version 4
File size : 1.13 GiB
Duration : 2 h 12 min
Overall bit rate : 1 231 kb/s
Encoded date : UTC 2020-09-15 22:53:04
Video
ID : 1
Format : AVC
Format/Info : Advanced Video Codec
Format profile : High@L3.1
Format settings : CABAC / 2 Ref Frames
Format settings, CABAC : Yes
Format settings, RefFrames : 2 frames
Codec ID : V_MPEG4/ISO/AVC
Duration : 2 h 11 min
Bit rate : 1 000 kb/s
Width : 1 920 pixels
Height : 1 012 pixels
Display aspect ratio : 1.897
Frame rate mode : Constant
Frame rate : 24.000 FPS
Color space : YUV
Audio
ID : 2
Format : AC-3
Format/Info : Audio Coding 3
Commercial name : Dolby Digital
Codec ID : A_AC3
Duration : 2 h 12 min
Bit rate mode : Constant
Bit rate : 224 kb/s
Channel(s) : 2 channels
Channel layout : L R
Sampling rate : 48.0 kHz
Frame rate : 31.250 FPS (1536 SPF)
Bit depth : 16 bits
Compression mode : Lossy
Text
ID : 3
Format : ASS
Codec ID : S_TEXT/ASS
Codec ID/Info : Advanced Sub Station Alpha
Duration : 2 h 11 min
Compression mode : Lossless
Title : juleyano movies
Language : English
Default : Yes
Forced : Yes








1.13 GB




التعديل الأخير تم بواسطة juleyano ; 07-12-2021 الساعة 02:40 PM

 
 رقم المشاركة : ( 530 )
bleupulsar
عضو
رقم العضوية : 32607
تاريخ التسجيل : Jul 2015
مكان الإقامة :
عدد المشاركات : 38
عدد النقاط : 1
قوة التقييم : bleupulsar is an unknown quantity at this point
جهات الاتصال :

bleupulsar غير متواجد حالياً

   

افتراضي

كُتب : [ 08-07-2015 ]


Mom 2017 BluRay Hindi 720p x264 AAC 5.1 Arabic.ESub - mkvCinemas [Telly] BY Juleyano



Stars: Sridevi, Akshaye Khanna, Adnan Siddiqui |
Format : Matroska
Format version : Version 4 / Version 2
File size : 1.28 GiB
Duration : 2 h 26 min
Overall bit rate : 1 251 kb/s
Video
ID : 1
Format : AVC
Format/Info : Advanced Video Codec
Format profile : High@L4.1
Format settings : CABAC / 4 Ref Frames
Format settings, CABAC : Yes
Format settings, RefFrames : 4 frames
Codec ID : V_MPEG4/ISO/AVC
Duration : 2 h 26 min
Bit rate : 1 005 kb/s
Width : 1 280 pixels
Height : 536 pixels
Display aspect ratio : 2.40:1
Frame rate mode : Constant
Frame rate : 24.000 FPS
Color space : YUV
Audio
ID : 2
Format : AC-3
Format/Info : Audio Coding 3
Codec ID : A_AC3
Duration : 2 h 26 min
Bit rate mode : Constant
Bit rate : 224 kb/s
Channel(s) : 6 channels
Channel positions : Front: L C R, Side: L R, LFE
Sampling rate : 48.0 kHz
Frame rate : 31.250 FPS (1536 SPF)
Bit depth : 16 bits
Compression mode : Lossy
Text
ID : 3
Format : PGS
Codec ID : S_HDMV/PGS
Codec ID/Info : Picture based subtitle format used on BDs/HD-DVDs
Duration : 2 h 16 min
Bit rate : 22.4 kb/s
Count of elements : 2684
Stream size : 21.8 MiB (2%)
Title : LOKI
Language : English









1.27 GB

الترجمة العربية الاحترافية بالرابط التالي




التعديل الأخير تم بواسطة juleyano ; 07-12-2021 الساعة 02:47 PM

موضوع مغلق

مواقع النشر (المفضلة)

الكلمات الدلالية (Tags)
۩۞۩, 1080p, 15, 1951, 1952, 1962, 1963, 1964, 1967, 1968, 1970, 1971, 1972, 1973, 1974, 1975, 1976, 1977, 1979, 1980, 1981, 1981dvdrip, 1982, 1983, 1984, 1985, 1985dvdrip, 1986, 1987, 1988webrip, 1989, 1990, 1991, 1992, 1993, 1994, 1995, 1996, 1997, 1998, 1999, 1cd, 1cddvdrip, 1cddvdripx264aacesubs, 1cddvdripxvidaacarabicesubmenbyjuleyano, 2, 2000, 2001, 2003, 2004, 2005, 2006, 2007, 2008, 2010, 2011, 2012, 2013, 2014, 2015, 2016, 2017, 2cd, 3, 40, 480p, 51, 51arabicesubsdusbyjuleyano, 51chapters, 51engsubhon3ybyjuleyano, 51esubs, 51esubshon3ybyjuleyano, 702, 720, 720p, 720pbluray, 720pbrripx264, 720pbrripx264aac51arabicesubhon3ybyjuleya, 720pbrripx264aac51arabicesubhon3ybyjuleyano, 720pdvdrip, aac, aac51arabicesubs, aacarabicesubbyjuleyano, aacarabicesubs, aacesubshon3ybyjuleyano, aadmi, aakhri, aamir, aan, aashiq, ac3, ac3alicbyjuleyano, ac3arabicesubbyjuleyan, ac3arabicesubsby, ac3arabicsub, ac3byjuleyano, ac3ehardsubby, ac3esubbyjuleyano, ac3esubchapters, ac3esubs, ac3esubsalicetdbbbyjuleyano, ac3hardesubsby, acarabicesubs, acesubchapters, acesubsonic, action, adhikari, agent, agneepath2012, akbar, akele, ali, alice, alicetdbbbyjuleyano, alictdbbbyjuleyano, amaanat, amr, andar, angrakshak, anjaan, ano, anuraag, apna, arabic, arabicesub, arabicesubs, arb, arth, ashanti, aur, avi, awara, للنجم, للاخوة, للكبار, للعربية, للفيلم, لميثون, لأكشاى, لأكشى, لأعمال, لانني, لاجاى, لايجاد, لاخي, لاكشى, لتحديث, لجون, لدارمندرا, لدي, لريتك, لسلمان, لسونى, لسيف, لشاهيد, لشاروخ, لشاروخان, لكافة, لعامر, لغاية, لفتح, لفترة, لفيلم, من, أنيل, مندرا, أو, موضوع, مباشر, مترجم, مترجمة, أترك, أجاى, ميت, ميثون, ميجا, مدبلج, أرجو, أرجون, مساحة, مسجلة, أشوريا, مشاهدة, أصلية, مُترجم, مكتبة, أكشن, مع, معي, مغلق, مغامرات, أفلام, مقطع, نداء, نسخ, نسخة, إلى, هاشمى, هدا, و, ومانسى الكوميدى cocktail.2012 لسيف على خان, وميثون, ومشاهدة, والله, والأثارة, والمُغامرة, والمعامرات, والأعضاء, والمغامرات, والإثارة, والجريمة, والحصرية, والخيال, وامريش, وانيل, واثارة, وادهم, وبجودة, وتورنت, وتابو, ويرجى, ودارا, ورابط, وزينات, وسوناكشى, وسونكشى, وسريديفى, وشاهيد, وشاهدة, وطلب, وكاترينا, وكاجول, وكارينا, وعمل, وغموض, baadshah, baahar, baahubali, baaraat, baazi, baba, babu, back, bajrangi, bakshy, bang, bang bang 2014, barood, bawarchi, beginning, bengal, bengali, bewakoofiyaan, bezubaan, bhag, bhaijaan2015, bhoot, biwi, bluray, bobby, bollywood, boss, brahmachari1968dvdripxvidmp3subsmenbyjuley, brahmachari1968dvdripxvidmp3subsmenbyjuleyano, brothers, byejuleyano, byjuleyano, byomkesh, chabbis2013, chak, channelsac3esub, channelsesubbyjuleyano, chaps, chemmeen, chennai, china, chor, cocktail2012, commando1988, الملكية, الألغاز, المميز, المواضيع, المتألق, المتميزة, المتاحة, المترجمين, المثير, المجموعة, المحترمين, الأخ, المساعدة, الأسطورة, المُنتظر, المكاتب, الأكشن, المغلقة, النادر, النجم, الهندي, الهندية, الهارد, الانجليزية, الاخوه, الاخوة, الاكشن, الاعزاء, الاعضاء, الافلام, التواصل, التحميل, الترجمات, الترجمة, الج, الجميل, الجودة, الجديد, الجريمة, الحياة, الخليجية, الخيالى, الديسك, الرومانس, الرومانسى, الرومانسي, الروابط, الرائع, السينما, السياسي, الكوميدى, الكوميدي, الكوميديا, الكاملة, الكرام, العلمى, العافية, العربية, الغالي, الف, الفيل, الفيلم, امان, اذنكم, ابو, ابراهام, ابراهيم, اجاى, احدث, اخوكم, ارجون, اصلاح, اصلية, اكشن, اغلاق, افلام, daag, dabangg, dacait1987, dahleez, daku, darbyjuleyano, dday2013, ddr, de, deeka, deewana, desh, detective, dharam, dharm, dhoom, dil, dill, dilwale, don, drishyam, dudeluciferbyjuleyano, dulha, duplicate1998, dushmani, dvd, dvdr, dvdrip, dvdrip720px264aacarabicenglish, dvdripx264, dvdripx264aac, dvdripx264aac51esubsdusbyjuleyano, dvdripx264aacesubschaptersbyjuleyano, dvdripx264ac3engsubschaptersbyjuleyano, dvdripx264ac3esub51byjuleyano, dvdripx264ac3esubs, dvdripx264ac3un51, dvdripx264acesubschaptersbyjuleyano, dvdripxvid6, dvdripxvidac3arabicesubsbye, dvdripxvidac3arabicesubstuhinbyjuleyano, dvdripxvidac3englishgermansubsddr, dvdripxvidac3ensubbyjuleyano, dvdripxvidmp3esub, dvdripxvidmp3hardesubbyjuleyano, dvdripxxvidac36, dvdscr, eena, effects, ek, ekthidaayan2013, entertainment, esub, esubbyjuleyan, esubbyjuleyano, esubs, esubsby, esubsbyjuleyano, esubschapters, exdt, exdxmr, express, بهى, بورتي, بورى, باللهجة, باللغة, بالموقع, بالعربي, باقة, بجودة, بحجم, بخصوص, برينكا, بسبب, بعض, تاريخى, تجميل, تيليوغو, تحميل, تعبت, تعديل, farz, fhd, film, film hindi, gabr, gali, ganga, gangster, gaya, ghar, ghatak, ghayal, ghulami, gola, goliyon, gunday, haathi, hai, happy, haqeeqat, hawaldar, hd, hdrip, heere, henna, hero, hero2013, hindi, hindiwebripx264ac3esubbyjuleyano, ho, hon3yby, hon3ybyjuleyano, hon3yhdbyejuleyano, hum, ii, impossible, india, inkaar2013, insan, international, izzatdaar, جميع, جول, جوليانو, جولياتو, جاكي, جيجا, جد, حذفت, حتى, حتى أترك الحياة, يجودة, حصريا, حصريــــــا, يعطيك, حقوق, خان, خانandابشيك, خانandكارينا, دارمندرا, ديول, ديفجان, jaag, jaan, jaan2012, jab, jab tak hai jaan2012, jackson, jagir, jai, jamai, janta, jasoos, jayegi, jessica, jodhaa, juleyano, jung, kaal, kachche, kalpurush, kanon, kanoon, kanoon1993, kanyadaan, kasam, kayda, ke, khan, khiladi, khoobsurat, khote, khudgarz, ki, kick, kill, killed, kranti, krrish3, kurukshetra, leela, leyano, love, maafia, mahal, mahatma, maidanejung, maili, main, majboor, mbc, mbg, meena, meranaamjoker, mere, mhd, mickey, mil, mkv, mohra, mp3, mp3english, mr, mrs, mukti, muqabla, murder, muskaan, nache, nagin, namaste, nikhla, ntsc, رومانسى, روائع, روخان, روشان, رامبال, راح, ريشى, رعب, onebytwo2014, سلمان, سنة, سونى, سانجيف, سارتاح, سينها, سيتم, سيرفرات, سيف, شوبرا, شاه, شاه روخان و الأسطورة, شاهيد, شاروخ, شاروخان, شاروف, شاكرا, شكر, شكربورتى, شكربورتي, صور, صديقى, طلب, ط§ظ„ط§ط®ظˆظ‡, ط§ظ„ط§ظپظ„ط§ظ…, ط§ظ„ظپظٹظ„ظ…, ط¬ظ…ظٹط¹, طµظˆط±, ط·ظ„ط¨, pagal, paheli, palay, parwane1993, phantombyjuleyano, phata, pk, poem, poster, pratigyabadh, premee, pum, pyaar, qahar, qayamt, ra, raahen, raaj, raasleela, raasta, raat, raavan, race, rajkumar, ram, ramayya, ramleela, rang, rangoon, raone, ravan, rdybyjuleyano, returns, returns2014, ripaacultravideocdbyjuleyano, ripx264ac3arabicesubbyjuleyano, rmvb, romance, rounder, rum, saathi, saheb, salaakhen, salaam, sangam, sangamcddvdripxvidmp3arabicesubsbyju, sangamcddvdripxvidmp3arabicesubsbyjuleyano, sangeet, sankat, sardaar2012, shaadi, side, sikkay, singham, sipahi, soldier, son, souten, special, story, student, subramanyam, subsbyjuleyano, كومار, كوميدى, كابور, كتير, كيف, t a g s, ta, taal, taj, tak, talaash2012, tdbbbyjuleyano, teamtellybyjuleyano, teri, tevar, tha, tiger, tilak, tmb, tmbbyjuleyano, town, true, tu, tum, tv, tvrip, untouched, utha, ظ…ظ‚ط·ط¹, ظ…ظ†, ظ‡ط¯ط§, على, عمر, عمران, عن, عالية, عامر, عائلى, عربي, غموض, غ©غ‍غ©, v2, vastavaiya, vcd, veer, veerta, vidhaata, villain, vinod, virus2013, vishnudevaa, vivah, webdlx264ac3, webrip, webripmp3byjuleyano, webx264ac3esubsbyjuleyano, x1ac3byjuleyano, x1und, x264, x264aac, x264aac51, x264aac51arabicesubschaptersbyjuleyano, x264aacarabicesubschapters, x264aacengsubbyjuleyano, x264aacesubbyjuleyano, x264aachardesubsbyjuleyano, x264ac36arabic, x264ac3arabic, x264ac3arabicesubbyjuleyano, x264ac3arabicesubs51byjuleyano, x264ac3arabicesubsbyjuleyan, x264ac3byjuleyano, x264ac3chapters, x264ac3engsub51chaptersbyjuleyano, x264ac3engsubchapters, x264ac3engsubsbyjuleyano, x264ac3esubbyjuleyano, x264ac3esubs, x264ac3esubschaptersbyjuleyano, x264ac3hardesubbyjuleyano, x264mp3arabicesubs, xmrbyjuleyano, xvid, xvidacarabicesubs, yaadon, yari, year, yevade, فيلم, فيلم هندى نادر, فقط, zabardast, zamana, zameen, zanjeer2013, ziddi1997


الذين يشاهدون محتوى الموضوع الآن : 1 ( الأعضاء 0 والزوار 1)
 
أدوات الموضوع
انواع عرض الموضوع

تعليمات المشاركة
لا تستطيع إضافة مواضيع جديدة
لا تستطيع الرد على المواضيع
لا تستطيع إرفاق ملفات
لا تستطيع تعديل مشاركاتك

BB code is متاحة
كود [IMG] متاحة
كود HTML معطلة

الانتقال السريع


الساعة الآن 07:17 PM


Powered by vBulletin® Copyright ©2010 - 2022 Jelsoft Enterprises Ltd.
جميع ما ينشر من مواضيع و ردود تعبر عن رآي كاتبها فقط