عرض مشاركة واحدة
 
 رقم المشاركة : ( 413 )
juleyano
Moderator
الصورة الرمزية juleyano
رقم العضوية : 32054
تاريخ التسجيل : Nov 2014
مكان الإقامة :
عدد المشاركات : 7,359
عدد النقاط : 1
قوة التقييم : juleyano is an unknown quantity at this point
جهات الاتصال :

juleyano غير متواجد حالياً

   

Syria Ek Villain (2014) Hindi 720p.BluRay x264.AAC.5.1. Arabic.E.SubS . Hon3y.HD.bye.juleyano

كُتب : [ 18-03-2018 ]


Ek Villain (2014) Hindi 720p.BluRay x264.AAC.5.1. Arabic.E.SubS . Hon3y.HD.bye.juleyano



Stars: Sidharth Malhotra, Shraddha Kapoor, Riteish Deshmukh |
Format : Matroska
Format version : Version 4 / Version 2
File size : 1.45 GiB
Duration : 2 h 8 min
Overall bit rate : 1 606 kb/s
Movie name : Ek Villain 2014 - M@X @ Hon3y
Encoded date : UTC 2017-11-13 07:02:01
Video
ID : 1
Format : AVC
Format/Info : Advanced Video Codec
Format profile : High@L4.1
Format settings : CABAC / 8 Ref Frames
Format settings, CABAC : Yes
Format settings, RefFrames : 8 frames
Codec ID : V_MPEG4/ISO/AVC
Duration : 2 h 8 min
Bit rate : 1 412 kb/s
Width : 1 280 pixels
Height : 544 pixels
Display aspect ratio : 2.35:1
Frame rate mode : Constant
Frame rate : 24.000 FPS
Color space : YUV
Audio
ID : 2
Format : AAC
Format/Info : Advanced Audio Codec
Format profile : LC
Codec ID : A_AAC-2
Duration : 2 h 8 min
Bit rate : 192 kb/s
Channel(s) : 6 channels
Channel positions : Front: L C R, Side: L R, LFE
Sampling rate : 48.0 kHz
Frame rate : 46.875 FPS (1024 SPF)
Compression mode : Lossy
Text #1
ID : 3
Format : UTF-8
Codec ID : S_TEXT/UTF8
Codec ID/Info : UTF-8 Plain Text
Duration : 2 h 6 min
Bit rate : 49 b/s
Count of elements : 1567
Stream size : 45.8 KiB (0%)
Language : English
Text #2
ID : 4
Format : UTF-8
Codec ID : S_TEXT/UTF8
Codec ID/Info : UTF-8 Plain Text
Duration : 2 h 6 min
Bit rate : 71 b/s
Count of elements : 1561
Stream size : 66.5 KiB (0%)
Language : Arabic
Menu
00:00:00.000 : en:00:00:00.000
00:05:11.375 : en:00:05:11.375







1.45 GB

الترجمة العربية الاحترافية بالرابط التالي


توقيع : juleyano


مكتبة جوليانو للافلام الأجنبية الكلاسيكية 1900 - 1990 نسخ عالية الجودة مع الترجمات المتاحة بالنت
http://egystars.com/vb/showthread.php?t=9446
اي رابط لا يعمل من افلامي فقط ضعه هنا من فضلك ليتم تجديده والف شكر
http://egystars.com/vb/showthread.php?t=10125

مدونتي لكافة افلامي الهندية والعربية والاجنبية بنسخ DVD عالية الجودة
http://juleyano-dodo.blogspot.pt