عرض مشاركة واحدة
 
 رقم المشاركة : ( 393 )
juleyano
Moderator
الصورة الرمزية juleyano
رقم العضوية : 32054
تاريخ التسجيل : Nov 2014
مكان الإقامة :
عدد المشاركات : 7,547
عدد النقاط : 1
قوة التقييم : juleyano is an unknown quantity at this point
جهات الاتصال :

juleyano غير متواجد حالياً

   

Syria Dhamkee (1973) Hindi.Untouched . WeB.DLx264.AAC Arabic.E.SubS . Hon3y.HD.bye.juleyano

كُتب : [ 16-02-2018 ]


Dhamkee (1973) Hindi.Untouched . WeB.DLx264.AAC Arabic.E.SubS . Hon3y.HD.bye.juleyano



Stars: Vinod Khanna, Kumkum, Mehmood Jr. |
Format : Matroska
Format version : Version 4 / Version 2
File size : 999 MiB
Duration : 1 h 48 min
Overall bit rate : 1 286 kb/s
Movie name : Dhamkee 1973 - M@X @ Hon3y
Video
ID : 1
Format : AVC
Format/Info : Advanced Video Codec
Format profile : High@L3
Format settings : CABAC / 4 Ref Frames
Format settings, CABAC : Yes
Format settings, RefFrames : 4 frames
Codec ID : V_MPEG4/ISO/AVC
Duration : 1 h 48 min
Bit rate : 1 228 kb/s
Width : 640 pixels
Height : 480 pixels
Display aspect ratio : 4:3
Frame rate mode : Constant
Frame rate : 25.000 FPS
Audio
ID : 2
Format : AAC
Format/Info : Advanced Audio Codec
Format profile : LC
Codec ID : A_AAC-2
Duration : 1 h 48 min
Bit rate : 48.0 kb/s
Channel(s) : 2 channels
Channel positions : Front: L R
Sampling rate : 48.0 kHz
Frame rate : 46.875 FPS (1024 SPF)
Compression mode : Lossy
Text #1
ID : 3
Format : UTF-8
Codec ID : S_TEXT/UTF8
Codec ID/Info : UTF-8 Plain Text
Duration : 1 h 48 min
Bit rate : 41 b/s
Count of elements : 1110
Stream size : 33.2 KiB (0%)
Language : English
Default : Yes
Forced : No

Text #2
ID : 4
Format : UTF-8
Codec ID : S_TEXT/UTF8
Codec ID/Info : UTF-8 Plain Text
Duration : 1 h 48 min
Bit rate : 69 b/s
Count of elements : 1111
Stream size : 54.6 KiB (0%)
Language : Arabic
Default : No









0.98 GB

الترجمة العربية الاحترافية بالرابط التالي


توقيع : juleyano

الى الاخوة الاعزاء من عنده افلام محملة من عندي اتمنى تحميلها لافادة الاخيرين وخاصة افلام التي روابطها منتهية يرجى المتابعة والسبب الهارد الديسك تعطل بسعة ٢ تيرا والف شكر
ساضع الافلام بشكل يومي لانني ساحمل كافة الافلام وارى اي فلم منتهي روابطه