عرض مشاركة واحدة
 
 رقم المشاركة : ( 398 )
juleyano
Moderator
الصورة الرمزية juleyano
رقم العضوية : 32054
تاريخ التسجيل : Nov 2014
مكان الإقامة :
عدد المشاركات : 7,462
عدد النقاط : 1
قوة التقييم : juleyano is an unknown quantity at this point
جهات الاتصال :

juleyano غير متواجد حالياً

   

Syria Sarkar 3 (2017) Hindi.Untouched.WEB.DL x264.MSubS.Hon3y. bye.juleyano

كُتب : [ 21-02-2018 ]


Sarkar 3 (2017) Hindi.Untouched.WEB.DL x264.MSubS.Hon3y. bye.juleyano



Stars: Amitabh Bachchan, Abhishek Bachchan, Jackie Shroff |
Format : Matroska
Format version : Version 4 / Version 2
File size : 1.16 GiB
Duration : 2 h 10 min
Overall bit rate : 1 274 kb/s
Movie name : Sarkar 3 2017- M@X @ Hon3y
Video
ID : 1
Format : AVC
Format/Info : Advanced Video Codec
Format profile : High@L3
Format settings : CABAC / 4 Ref Frames
Format settings, CABAC : Yes
Format settings, RefFrames : 4 frames
Codec ID : V_MPEG4/ISO/AVC
Duration : 2 h 10 min
Bit rate : 1 228 kb/s
Width : 640 pixels
Height : 360 pixels
Display aspect ratio : 16:9
Frame rate mode : Constant
Frame rate : 24.000 FPS
Color space : YUV
Audio
ID : 2
Format : AAC
Format/Info : Advanced Audio Codec
Format profile : LC
Codec ID : A_AAC-2
Duration : 2 h 10 min
Bit rate : 48.0 kb/s
Channel(s) : 2 channels
Channel positions : Front: L R
Sampling rate : 48.0 kHz
Frame rate : 46.875 FPS (1024 SPF)
Compression mode : Lossy
Text #1
ID : 3
Format : UTF-8
Codec ID : S_TEXT/UTF8
Codec ID/Info : UTF-8 Plain Text
Duration : 2 h 10 min
Bit rate : 43 b/s
Count of elements : 1292
Stream size : 41.3 KiB (0%)
Language : English
Text #2
ID : 4
Format : UTF-8
Codec ID : S_TEXT/UTF8
Codec ID/Info : UTF-8 Plain Text
Duration : 2 h 10 min
Bit rate : 63 b/s
Count of elements : 1292
Stream size : 60.3 KiB (0%)
Language : Arabic







1.16 GB

الترجمة العربية الاحترافية بالرابط التالي


توقيع : juleyano

ساتغيب على المنتدى من تاريخ ٢ /8 لغاية ٣ / 9 بسبب السفر وانشآلله نعودة بالصحة والعافية
مكتبة جوليانو الجديدة للعملاق ميثون شكرا بورتي نسخ dvd عالية الجودة مع الترجمات المتاحة بالنت
http://egystars.com/vb/showthread.php?t=8456


اي رابط لا يعمل من افلامي فقط ضعه هنا من فضلك ليتم تجديده والف شكر
http://egystars.com/vb/showthread.php?t=10125

مدونتي لكافة افلامي الهندية والعربية والاجنبية بنسخ DVD عالية الجودة
http://juleyano-dodo.blogspot.pt