:: EgyStars ::

:: EgyStars :: (http://egystars.com/vb/index.php)
-   قسم مكتبات ابطال الافلام الهندية (http://egystars.com/vb/forumdisplay.php?f=123)
-   -   Every day 5 new movies Bollywood Movies before year 2000.WEB.DL.1080p.ZEE5.x264.AAC.ESubs.BY juleyano (http://egystars.com/vb/showthread.php?t=23925)

juleyano 21-06-2022 01:10 PM

Every day 5 new movies Bollywood Movies before year 2000.WEB.DL.1080p.ZEE5.x264.AAC.ESubs.BY juleyano
 
تم عمل هذه المكتبة بمساعدة الاخوة الغاليين عمر amr gabr والاخ حمزة hamzah الله يعطيهم الصحة والعافية يارب



فهرس للمكتبة

juleyano 22-06-2022 08:11 AM

Naseeb Apna Apna (1986) Hindi.WEB.720p.ZEE5.x264.AAC.ESubs.BY juleyano
 
Naseeb Apna Apna (1986) Hindi.WEB.720p.ZEE5.x264.AAC.ESubs.BY juleyano



Stars
Rishi Kapoor,Farha Naaz,Radhika Sarathkumar
Format : Matroska
Format version : Version 4
File size : 1.75 GiB
Duration : 2 h 17 min
Overall bit rate : 1 824 kb/s
Video
ID : 1
Format : AVC
Format/Info : Advanced Video Codec
Format profile : High@L4.1
Format settings : CABAC / 4 Ref Frames
Format settings, CABAC : Yes
Format settings, Reference frames : 4 frames
Codec ID : V_MPEG4/ISO/AVC
Duration : 2 h 17 min
Nominal bit rate : 1 600 kb/s
Width : 896 pixels
Height : 720 pixels
Display aspect ratio : 4:3
Original display aspect ratio : 4:3
Frame rate mode : Constant
Frame rate : 25.000 FPS
Color space : YUV
Audio
ID : 2
Format : AAC LC
Format/Info : Advanced Audio Codec Low Complexity
Codec ID : A_AAC-2
Duration : 2 h 17 min
Channel(s) : 2 channels
Channel layout : L R
Sampling rate : 48.0 kHz
Frame rate : 46.875 FPS (1024 SPF)
Compression mode : Lossy
Text
ID : 3
Format : ASS
Codec ID : S_TEXT/ASS
Codec ID/Info : Advanced Sub Station Alpha
Compression mode : Lossless
Language : English
Default : Yes
Forced : Yes









1.75 GB






amr gabr 22-06-2022 08:49 AM

Zalzala (1988) Hindi.WEB.DL.1080p.ZEE5.x264.AAC.ESubs.BY juleyano
 
Zalzala (1988) Hindi.WEB.DL.1080p.ZEE5.x264.AAC.ESubs.BY juleyano



Stars: Dharmendra, Karan Kapoor, Shatrughan Sinha
Format : MPEG-4
Format profile : Base Media
Codec ID : isom (isom/iso2/avc1/mp41)
File size : 3.67 GiB
Duration : 2 h 49 min
Overall bit rate : 3 105 kb/s
Video
ID : 1
Format : AVC
Format/Info : Advanced Video Codec
Format profile : High@L3.1
Format settings : CABAC / 4 Ref Frames
Format settings, CABAC : Yes
Format settings, Reference frames : 4 frames
Format settings, GOP : M=4, N=50
Codec ID : avc1
Codec ID/Info : Advanced Video Coding
Duration : 2 h 49 min
Bit rate : 3 000 kb/s
Width : 2 160 pixels
Height : 1 080 pixels
Display aspect ratio : 2.2:1
Frame rate mode : Constant
Frame rate : 25.000 FPS
Color space : YUV
Audio
ID : 2
Format : AAC LC
Format/Info : Advanced Audio Codec Low Complexity
Codec ID : mp4a-40-2
Duration : 2 h 49 min
Bit rate mode : Constant
Bit rate : 96.0 kb/s
Channel(s) : 2 channels
Channel layout : L R
Sampling rate : 48.0 kHz
Frame rate : 46.875 FPS (1024 SPF)
Compression mode : Lossy
Stream size : 117 MiB (3%)
Default : Yes
Alternate group : 1









3.66 GB


soussi1 22-06-2022 01:20 PM

مشكور على الفيلم الرائع جولي

juleyano 23-06-2022 12:52 PM

Shaitani Ilaka (1990) Hindi.Horror.480p.WebRip.AC3.ESubs.BY juleyano
 
Shaitani Ilaka (1990) Hindi.Horror.480p.WebRip.AC3.ESubs.BY juleyano



Stars
Ranjeet Bedi,Sunil Dhawan,Shehnaz Kudia
Format : Matroska
Format version : Version 2
File size : 1.45 GiB
Duration : 2 h 8 min
Overall bit rate : 1 618 kb/s
Video
ID : 1
Format : AVC
Format/Info : Advanced Video Codec
Format profile : High@L3
Format settings : CABAC / 4 Ref Frames
Format settings, CABAC : Yes
Format settings, Reference frames : 4 frames
Codec ID : V_MPEG4/ISO/AVC
Duration : 2 h 8 min
Bit rate : 1 232 kb/s
Width : 632 pixels
Height : 472 pixels
Display aspect ratio : 4:3
Frame rate mode : Constant
Frame rate : 25.000 FPS
Color space : YUV
Audio
ID : 2
Format : AC-3
Format/Info : Audio Coding 3
Commercial name : Dolby Digital
Codec ID : A_AC3
Duration : 2 h 8 min
Bit rate mode : Constant
Bit rate : 384 kb/s
Channel(s) : 2 channels
Channel layout : L R
Sampling rate : 44.1 kHz
Frame rate : 28.711 FPS (1536 SPF)
Compression mode : Lossy
Text
ID : 3
Format : UTF-8
Codec ID : S_TEXT/UTF8
Codec ID/Info : UTF-8 Plain Text
Duration : 2 h 4 min
Bit rate : 46 b/s
Count of elements : 1672
Stream size : 42.3 KiB (0%)
Title : juleyano movies
Language : English
Default : Yes
Forced : No











1.45 GB



juleyano 23-06-2022 07:42 PM

Ravan Raaj A True Story (1995) Hindi.WEBRip.ZEE5 x264.AAC.ESubs.BY.juleyano
 
Ravan Raaj A True Story (1995) Hindi.WEBRip.ZEE5 x264.AAC.ESubs.BY.juleyano



Stars: Ishrat Ali, Mithun Chakraborty, Jack Gaud
Format : Matroska
Format version : Version 4
File size : 1.90 GiB
Duration : 2 h 29 min
Overall bit rate : 1 828 kb/s
Video
ID : 1
Format : AVC
Format/Info : Advanced Video Codec
Format profile : High@L4.1
Format settings : CABAC / 4 Ref Frames
Format settings, CABAC : Yes
Format settings, Reference frames : 4 frames
Codec ID : V_MPEG4/ISO/AVC
Duration : 2 h 29 min
Nominal bit rate : 1 600 kb/s
Width : 720 pixels
Height : 480 pixels
Display aspect ratio : 1.990
Original display aspect ratio : 1.991
Frame rate mode : Constant
Frame rate : 25.000 FPS
Color space : YUV
Audio
ID : 2
Format : AAC LC
Format/Info : Advanced Audio Codec Low Complexity
Codec ID : A_AAC-2
Duration : 2 h 29 min
Channel(s) : 2 channels
Channel layout : L R
Sampling rate : 48.0 kHz
Frame rate : 46.875 FPS (1024 SPF)
Compression mode : Lossy
Text
ID : 3
Format : ASS
Codec ID : S_TEXT/ASS
Codec ID/Info : Advanced Sub Station Alpha
Compression mode : Lossless
Language : English
Default : Yes
Forced : Yes












1.90 GB


juleyano 24-06-2022 12:49 AM

Phool Khile Hain Gulshan Gulshan (1978) Hindi.WEB. 720p.ZEE5.x264.AAC.ESubs.BY juleyano
 
Phool Khile Hain Gulshan Gulshan (1978) Hindi.WEB. 720p.ZEE5.x264.AAC.ESubs.BY juleyano



Stars
Rishi Kapoor,Moushumi Chatterjee,Ashok Kumar
Format : Matroska
Format version : Version 4
File size : 1.54 GiB
Duration : 2 h 15 min
Overall bit rate : 1 629 kb/s
Video
ID : 1
Format : AVC
Format/Info : Advanced Video Codec
Format profile : High@L4.1
Format settings : CABAC / 4 Ref Frames
Format settings, CABAC : Yes
Format settings, Reference frames : 4 frames
Codec ID : V_MPEG4/ISO/AVC
Duration : 2 h 15 min
Nominal bit rate : 1 400 kb/s
Width : 904 pixels
Height : 720 pixels
Display aspect ratio : 1.375
Frame rate mode : Constant
Frame rate : 25.000 FPS
Color space : YUV
Audio
ID : 2
Format : AAC LC
Format/Info : Advanced Audio Codec Low Complexity
Codec ID : A_AAC-2
Duration : 2 h 15 min
Channel(s) : 2 channels
Channel layout : L R
Sampling rate : 48.0 kHz
Frame rate : 46.875 FPS (1024 SPF)
Compression mode : Lossy
Text
ID : 3
Format : ASS
Codec ID : S_TEXT/ASS
Codec ID/Info : Advanced Sub Station Alpha
Compression mode : Lossless
Language : English
Default : Yes
Forced : Yes












1.54 GB


juleyano 24-06-2022 08:51 AM

Paap Ki Aandhi (1991) Hindi.WEB. 720p.ZEE5.x264.AAC.ESubs.BY juleyano
 
Paap Ki Aandhi (1991) Hindi.WEB. 720p.ZEE5.x264.AAC.ESubs.BY juleyano



Stars
Dharmendr,aAditya Pancholi,Farha Naaz
Format : Matroska
Format version : Version 4
File size : 1.67 GiB
Duration : 2 h 10 min
Overall bit rate : 1 832 kb/s
Video
ID : 1
Format : AVC
Format/Info : Advanced Video Codec
Format profile : High@L4.1
Format settings : CABAC / 4 Ref Frames
Format settings, CABAC : Yes
Format settings, Reference frames : 4 frames
Codec ID : V_MPEG4/ISO/AVC
Duration : 2 h 10 min
Nominal bit rate : 1 600 kb/s
Width : 1 240 pixels
Height : 720 pixels
Display aspect ratio : 1.893
Original display aspect ratio : 1.894
Frame rate mode : Constant
Frame rate : 25.000 FPS
Color space : YUV
Audio
ID : 2
Format : AAC LC
Format/Info : Advanced Audio Codec Low Complexity
Codec ID : A_AAC-2
Duration : 2 h 10 min
Channel(s) : 2 channels
Channel layout : L R
Sampling rate : 48.0 kHz
Frame rate : 46.875 FPS (1024 SPF)
Compression mode : Lossy
Text
ID : 3
Format : ASS
Codec ID : S_TEXT/ASS
Codec ID/Info : Advanced Sub Station Alpha
Compression mode : Lossless
Language : English
Default : Yes
Forced : Yes












1.67 GB


mustapha2020 24-06-2022 03:37 PM

merci mon frère

amr gabr 24-06-2022 08:26 PM

Radha Ka Sangam (1992) Hindi.WEB.DL.1080p.ZEE5.x264.AAC.ESubs.BY juleyano
 
Radha Ka Sangam (1992) Hindi.WEB.DL.1080p.ZEE5.x264.AAC.ESubs.BY juleyano



Stars
Ragesh Asthana,Juhi Chawla,Govinda
Format : MPEG-4
Format profile : Base Media
Codec ID : isom (isom/iso2/avc1/mp41)
File size : 3.41 GiB
Duration : 2 h 38 min
Overall bit rate mode : Variable
Overall bit rate : 3 078 kb/s
Video
ID : 1
Format : AVC
Format/Info : Advanced Video Codec
Format profile : High@L4
Format settings : CABAC / 4 Ref Frames
Format settings, CABAC : Yes
Format settings, Reference frames : 4 frames
Codec ID : avc1
Codec ID/Info : Advanced Video Coding
Duration : 2 h 38 min
Bit rate : 3 000 kb/s
Width : 1 278 pixels
Height : 1 080 pixels
Display aspect ratio : 4:3
Original display aspect ratio : 4:3
Frame rate mode : Constant
Frame rate : 25.000 FPS
Color space : YUV
Audio
ID : 2
Format : AAC LC
Format/Info : Advanced Audio Codec Low Complexity
Codec ID : mp4a-40-2
Duration : 2 h 38 min
Bit rate mode : Variable
Bit rate : 96.0 kb/s
Channel(s) : 2 channels
Channel layout : L R
Sampling rate : 48.0 kHz
Frame rate : 46.875 FPS (1024 SPF)
Compression mode : Lossy








3.40 GB



الساعة الآن 08:05 AM

Powered by vBulletin® Copyright ©2010 - 2022 Jelsoft Enterprises Ltd.
جميع ما ينشر من مواضيع و ردود تعبر عن رآي كاتبها فقط